Ссылка на приватное зеркало нашего сайта всего за 1$. Внимание количество ограничено!!!

2 сезон

iTunes

1 сезон

1

iTunes

iTunes

iTunes

1 сезон

RePack

30

ИГРА 18+

pack

ВАЖНО

!!Акция!!

Alien_RageХит недели

RePack

MK11
pack

Забери бонус

RePack

jed

!!Акция!!

Alien_Rage

RePack

fifa19

RePack

Assassins Creed: Odyssey

RePack

NEED FOR SPEED™ PAYBACK

4 сезон

9 сезон

Бесстыжие 9 сезон

Все сериалы

все сериалы на PB.wtf

RePack

FAR CRY 5
  

Тень за спиной / Сезон: 1 / Серии: 1-12 из 12 (Марк Горобец) [2019, Детектив, криминал, WEB-DLRip] pb.wtf

Тень за спиной через торрент pb.wtf

Размер: 8.27 GB | Добавлен: 1 год назад | Торрент скачан:38 раз
Скачать  

30-09-2019 17:44 Тень за спиной Скачать торрент  

Тень за спиной
Год выпуска: 2019
Страна: Россия
Жанр: Детектив, криминал
Продолжительность: ~ 00:48:00
Субтитры: отсутствуют

Режиссер: Марк Горобец



В ролях: Иван Оганесян, Александр Ляпин, Карина Андоленко, Михаил Тарабукин, Ксения Лаврова-Глинка, Денис Синявский, Дмитрий Поднозов, Дмитрий Паламарчук, Игорь Филиппов, Сергей Мардарь, Михаил Сидаш, Роман Синицын, Игорь Грабузов, Роман Притула, Виталий Салий, Олег Хамитов, Алёна Савастова, Артур Харитоненко, Станислав Демин, Маргарита Яковлева, Пётр Логачёв, Алексия Белавина, Тата Хачатрян

Описание: В небольшом провинциальном городке происходит череда преступлений. Убийства совершаются по одному сценарию: женщины исчезают во время возвращения с вечеринок, находясь в состоянии алкогольного опьянения. Из этого появляется предположение, что в городе орудует маньяк. Чтобы разобраться в происходящем и найти серийного убийцу, в город приезжает следователь Генпрокуратуры Николай Горобец: он уже ловил маньяков, и кому, как не ему, заниматься этим делом. Однако местному прокурору Садовскому не до серийных убийств: в это время в городе идёт очередной передел собственности и власти, и ему хотелось бы избежать вмешательства Москвы. Но Садовский вынужден оказывать содействие в поисках убийцы, и, если до этого он торопил расследование, то сейчас быстрый успех столичного следователя не в его интересах; именно поэтому в команду Горобца определяют молодого следователя Светлану Мирошникову и ещё совсем «зелёного» оперативника Михаила Воробьёва.

Качество: WEB-DLRip
Формат: AVI

Видео: 720x304 (2.37:1), 25 fps, XviD ~1900 kbps avg, 0.349 bit/pixel
Аудио: 48.0 kHz, AC3 Dolby Digital, 2/0 (L,R) ch, ~ 192 kbps
скриншот  скриншот  скриншот  

General
Complete name : D:\Ten.za.spinoy.(2019).WEB-DLRip.ExKinoRay\Ten.za.spinoy.e01.(2019).WEB-DLRip.ExKinoRay.avi
Format : AVI
Format/Info : Audio Video Interleave
File size : 725 MiB
Duration : 47 min 56 s
Overall bit rate : 2 113 kb/s
Writing application : VirtualDubMod 1.5.10.2 (build 2540/release)
Writing library : VirtualDubMod build 2540/release

Video
ID : 0
Format : MPEG-4 Visual
Format profile : Advanced Simple@L5
Format settings : BVOP1 / Custom Matrix
Format settings, BVOP : 1
Format settings, QPel : No
Format settings, GMC : No warppoints
Format settings, Matrix : Custom
Codec ID : XVID
Codec ID/Hint : XviD
Duration : 47 min 56 s
Bit rate : 1 912 kb/s
Width : 720 pixels
Height : 304 pixels
Display aspect ratio : 2.35:1
Frame rate : 25.000 FPS
Color space : YUV
Chroma subsampling : 4:2:0
Bit depth : 8 bits
Scan type : Progressive
Compression mode : Lossy
Bits/(Pixel*Frame) : 0.349
Stream size : 656 MiB (90%)
Writing library : XviD 73

Audio
ID : 1
Format : AC-3
Format/Info : Audio Coding 3
Codec ID : 2000
Duration : 47 min 56 s
Bit rate mode : Constant
Bit rate : 192 kb/s
Channel(s) : 2 channels
Channel positions : Front: L R
Sampling rate : 48.0 kHz
Frame rate : 31.250 FPS (1536 SPF)
Bit depth : 16 bits
Compression mode : Lossy
Stream size : 65.8 MiB (9%)
Alignment : Split accross interleaves
Interleave, duration : 40 ms (1.00 video frame)
Interleave, preload duratio : 500 ms
Service kind : Complete Main

При каждом добавлении создаётся новый торрент. Чтобы начать докачку новой серии, пользователям необходимо сделать следующее:
- остановить скачивание;
- удалить старый торрент у себя из клиента (старые серии удалять не надо);
- скачать новый торрент и запустить его у себя в клиенте вместо старого, при этом указать клиенту путь в старую папку, куда и должно происходить скачивание новых серий.
pb.wtf



Скачать Тень за спиной через торрент https://img16.lostpic.net/2019/09/30/3bcd3bd690e8b41f5013ba98d46eb938.jpg Скачать фильм Тень за спиной через торрент бесплантно в хорошем качестве Описание: В небольшом провинциальном городке происходит череда преступлений. Убийства совершаются по одному сценарию: женщины исчезают во ... 10 10 2
Торрент: Зарегистрирован [2019-10-04 12:35] · скачан: 38 раз
Статус: √ проверено
Размер: 8.27 GB
Как cкачать? Как скачать Тень за спиной через торрент | qTorrent

% Раздел Тема Автор DL S | L
Наши сериалы [ 9.12 GB ] Тень за спиной / Сезон: 1 / Серии: 1-12 из 12 [2019 WEBRip-AVC] bober100 Скачать
4 | 0
Наши сериалы [ 25.47 GB ] Тень за спиной / Сезон: 1 / Серии: 1-12 из 12 [2019 WEB-DL 1080p] bober100 Скачать
2 | 0
Наши сериалы [ 17.44 GB ] Тень за спиной / Сезон: 1 / Серии: 1-12 из 12 [2019 WEB-DL 720p] bober100 Скачать
3 | 1
Наши сериалы [ 7.83 GB ] Тень за спиной / Сезон: 1 / Серии: 1-12 из 12 [2019 SATRip] bober100 Скачать
1 | 0

28-11-2019 20:33  

Отключить всю рекламу на сайте

    Дорогой пользователь! Огромная просьба, поблагодарите релизера, оцените раздачу и оставьте свои комментарий, если Вы скачали Тень за спиной через торрент бесплатно! Внесите свою лепту в развитие PiratBit!
    Комментировать посты могут только пользователи прошедшие не сложную регистрацию
    Показать сообщения:    

    Тень за спиной через торрент
    Скачать бесплатно Тень за спиной
    Тень за спиной скачать торрент
    Тень за спиной смотреть онлайн
    Cкачать фильм Тень за спиной бесплатно
    Тень за спиной скачать торрент в хорошем качестве
    Тень за спиной смотреть онлайн бесплатно в хорошем качестве


    Вы не можете начинать темы
    Вы не можете отвечать на сообщения
    Вы не можете редактировать свои сообщения
    Вы не можете удалять свои сообщения
    Вы не можете голосовать в опросах
    Вы не можете прикреплять файлы к сообщениям
    Вы можете скачивать файлы