Ссылка на приватное зеркало нашего сайта всего за 1$. Внимание количество ограничено!!!

2 сезон

iTunes

1 сезон

1

iTunes

iTunes

iTunes

1 сезон

RePack

30

ИГРА 18+

pack

ВАЖНО

!!Акция!!

Alien_RageХит недели

RePack

MK11
pack

Забери бонус

RePack

jed

!!Акция!!

Alien_Rage

RePack

fifa19

RePack

Assassins Creed: Odyssey

RePack

NEED FOR SPEED™ PAYBACK

4 сезон

9 сезон

Бесстыжие 9 сезон

Все сериалы

все сериалы на PB.wtf

RePack

FAR CRY 5
  

Тень за спиной / Сезон: 1 / Серии: 1-12 из 12 (Марк Горобец) [2019, Детектив, криминал, WEB-DL 720p] pb.wtf

Тень за спиной через торрент pb.wtf

Размер: 17.44 GB | Добавлен: 1 год назад | Торрент скачан:53 раза
Скачать  

30-09-2019 17:49 Тень за спиной Скачать торрент  

Тень за спиной
Год выпуска: 2019
Страна: Россия
Жанр: Детектив, криминал
Продолжительность: ~ 00:48:00
Субтитры: отсутствуют

Режиссер: Марк Горобец



В ролях: Иван Оганесян, Александр Ляпин, Карина Андоленко, Михаил Тарабукин, Ксения Лаврова-Глинка, Денис Синявский, Дмитрий Поднозов, Дмитрий Паламарчук, Игорь Филиппов, Сергей Мардарь, Михаил Сидаш, Роман Синицын, Игорь Грабузов, Роман Притула, Виталий Салий, Олег Хамитов, Алёна Савастова, Артур Харитоненко, Станислав Демин, Маргарита Яковлева, Пётр Логачёв, Алексия Белавина, Тата Хачатрян

Описание: В небольшом провинциальном городке происходит череда преступлений. Убийства совершаются по одному сценарию: женщины исчезают во время возвращения с вечеринок, находясь в состоянии алкогольного опьянения. Из этого появляется предположение, что в городе орудует маньяк. Чтобы разобраться в происходящем и найти серийного убийцу, в город приезжает следователь Генпрокуратуры Николай Горобец: он уже ловил маньяков, и кому, как не ему, заниматься этим делом. Однако местному прокурору Садовскому не до серийных убийств: в это время в городе идёт очередной передел собственности и власти, и ему хотелось бы избежать вмешательства Москвы. Но Садовский вынужден оказывать содействие в поисках убийцы, и, если до этого он торопил расследование, то сейчас быстрый успех столичного следователя не в его интересах; именно поэтому в команду Горобца определяют молодого следователя Светлану Мирошникову и ещё совсем «зелёного» оперативника Михаила Воробьёва.

Качество: WEB-DL 720p
Формат: MKV

Видео: MPEG4 AVC Video, H264, 1280x544, 25 fps, ~4000 kbps, 0.230 bit/pixel
Аудио: AC3 Dolby Digital, 48.0 kHz, 2/0 (L,R) ch, 192 kbps
скриншот  скриншот  скриншот  скриншот  скриншот  

General
Unique ID : 187521375610758924491611531111628544462 (0x8D134DA1CD2DF3879E968BF9320419CE)
Complete name : D:\Ten.za.spinoy.2019.WEB-DLRip.(720p).ExKinoRay\Ten.za.spinoy.(01.seriya).2019.WEB-DLRip.(720p).ExKinoRay.mkv
Format : Matroska
Format version : Version 2
File size : 1.40 GiB
Duration : 47 min 56 s
Overall bit rate : 4 194 kb/s
Encoded date : UTC 2019-09-30 00:12:48
Writing application : mkvmerge v7.8.0 ('River Man') 32bit built on Apr 3 2015 12:11:22
Writing library : libebml v1.3.1 + libmatroska v1.4.2

Video
ID : 1
Format : AVC
Format/Info : Advanced Video Codec
Format profile : High@L4.1
Format settings : CABAC / 9 Ref Frames
Format settings, CABAC : Yes
Format settings, ReFrames : 9 frames
Codec ID : V_MPEG4/ISO/AVC
Duration : 47 min 56 s
Bit rate : 4 000 kb/s
Width : 1 280 pixels
Height : 544 pixels
Display aspect ratio : 2.35:1
Frame rate mode : Constant
Frame rate : 25.000 FPS
Color space : YUV
Chroma subsampling : 4:2:0
Bit depth : 8 bits
Scan type : Progressive
Bits/(Pixel*Frame) : 0.230
Stream size : 1.31 GiB (93%)
Writing library : x264 core 146 r2538 121396c
Encoding settings : cabac=1 / ref=9 / deblock=1:-3:-3 / analyse=0x3:0x113 / me=umh / subme=11 / psy=1 / psy_rd=1.00:0.20 / mixed_ref=1 / me_range=32 / chroma_me=1 / trellis=2 / 8x8dct=1 / cqm=0 / deadzone=21,11 / fast_pskip=1 / chroma_qp_offset=-3 / threads=24 / lookahead_threads=8 / sliced_threads=0 / nr=0 / decimate=0 / interlaced=0 / bluray_compat=0 / constrained_intra=0 / bframes=11 / b_pyramid=2 / b_adapt=2 / b_bias=0 / direct=3 / weightb=1 / open_gop=0 / weightp=2 / keyint=250 / keyint_min=25 / scenecut=40 / intra_refresh=0 / rc_lookahead=60 / rc=2pass / mbtree=1 / bitrate=4000 / ratetol=1.0 / qcomp=0.60 / qpmin=0 / qpmax=69 / qpstep=4 / cplxblur=20.0 / qblur=0.5 / vbv_maxrate=14000 / vbv_bufsize=14000 / nal_hrd=none / filler=0 / ip_ratio=1.40 / aq=3:1.40
Default : Yes
Forced : No
Color range : Limited
Color primaries : BT.709
Transfer characteristics : BT.709
Matrix coefficients : BT.709

Audio
ID : 2
Format : AC-3
Format/Info : Audio Coding 3
Codec ID : A_AC3
Duration : 47 min 56 s
Bit rate mode : Constant
Bit rate : 192 kb/s
Channel(s) : 2 channels
Channel positions : Front: L R
Sampling rate : 48.0 kHz
Frame rate : 31.250 FPS (1536 SPF)
Bit depth : 16 bits
Compression mode : Lossy
Stream size : 65.8 MiB (5%)
Service kind : Complete Main
Default : Yes
Forced : No

При каждом добавлении создаётся новый торрент. Чтобы начать докачку новой серии, пользователям необходимо сделать следующее:
- остановить скачивание;
- удалить старый торрент у себя из клиента (старые серии удалять не надо);
- скачать новый торрент и запустить его у себя в клиенте вместо старого, при этом указать клиенту путь в старую папку, куда и должно происходить скачивание новых серий.
pb.wtf



Скачать Тень за спиной через торрент https://img16.lostpic.net/2019/09/30/3bcd3bd690e8b41f5013ba98d46eb938.jpg Скачать фильм Тень за спиной через торрент бесплантно в хорошем качестве Описание: В небольшом провинциальном городке происходит череда преступлений. Убийства совершаются по одному сценарию: женщины исчезают во ... 10 10 4
Торрент: Зарегистрирован [2019-10-03 20:11] · скачан: 53 раз
Статус: √ проверено
Размер: 17.44 GB
Как cкачать? Как скачать Тень за спиной через торрент | qTorrent

% Раздел Тема Автор DL S | L
Наши сериалы [ 9.12 GB ] Тень за спиной / Сезон: 1 / Серии: 1-12 из 12 [2019 WEBRip-AVC] bober100 Скачать
2 | 0
Наши сериалы [ 25.47 GB ] Тень за спиной / Сезон: 1 / Серии: 1-12 из 12 [2019 WEB-DL 1080p] bober100 Скачать
1 | 0
Наши сериалы [ 8.27 GB ] Тень за спиной / Сезон: 1 / Серии: 1-12 из 12 [2019 WEB-DLRip] bober100 Скачать
1 | 0
Наши сериалы [ 7.83 GB ] Тень за спиной / Сезон: 1 / Серии: 1-12 из 12 [2019 SATRip] bober100 Скачать
1 | 0

28-11-2019 20:33  

Отключить всю рекламу на сайте

    Дорогой пользователь! Огромная просьба, поблагодарите релизера, оцените раздачу и оставьте свои комментарий, если Вы скачали Тень за спиной через торрент бесплатно! Внесите свою лепту в развитие PiratBit!
    Комментировать посты могут только пользователи прошедшие не сложную регистрацию
    Показать сообщения:    

    Тень за спиной через торрент
    Скачать бесплатно Тень за спиной
    Тень за спиной скачать торрент
    Тень за спиной смотреть онлайн
    Cкачать фильм Тень за спиной бесплатно
    Тень за спиной скачать торрент в хорошем качестве
    Тень за спиной смотреть онлайн бесплатно в хорошем качестве


    Вы не можете начинать темы
    Вы не можете отвечать на сообщения
    Вы не можете редактировать свои сообщения
    Вы не можете удалять свои сообщения
    Вы не можете голосовать в опросах
    Вы не можете прикреплять файлы к сообщениям
    Вы можете скачивать файлы