2 сезон

iTunes

1 сезон

1

iTunes

iTunes

iTunes

1 сезон

RePack

30

ИГРА 18+

pack

ВАЖНО

!!Акция!!

Alien_RageХит недели

RePack

MK11
pack

Забери бонус

RePack

jed

!!Акция!!

Alien_Rage

RePack

fifa19

RePack

Assassins Creed: Odyssey

RePack

NEED FOR SPEED™ PAYBACK

4 сезон

9 сезон

Бесстыжие 9 сезон

Все сериалы

все сериалы на PB.wtf

RePack

FAR CRY 5
  

Тень за спиной / Сезон: 1 / Серии: 1-12 из 12 (Марк Горобец) [2019, Детектив, криминал, WEB-DL 1080p] pb.wtf

Тень за спиной через торрент pb.wtf

Размер: 25.47 GB | Добавлен: 1 год назад | Торрент скачан:42 раза
Скачать  

30-09-2019 17:51 Тень за спиной Скачать торрент  

Тень за спиной
Год выпуска: 2019
Страна: Россия
Жанр: Детектив, криминал
Продолжительность: ~ 00:48:00
Субтитры: отсутствуют

Режиссер: Марк Горобец



В ролях: Иван Оганесян, Александр Ляпин, Карина Андоленко, Михаил Тарабукин, Ксения Лаврова-Глинка, Денис Синявский, Дмитрий Поднозов, Дмитрий Паламарчук, Игорь Филиппов, Сергей Мардарь, Михаил Сидаш, Роман Синицын, Игорь Грабузов, Роман Притула, Виталий Салий, Олег Хамитов, Алёна Савастова, Артур Харитоненко, Станислав Демин, Маргарита Яковлева, Пётр Логачёв, Алексия Белавина, Тата Хачатрян

Описание: В небольшом провинциальном городке происходит череда преступлений. Убийства совершаются по одному сценарию: женщины исчезают во время возвращения с вечеринок, находясь в состоянии алкогольного опьянения. Из этого появляется предположение, что в городе орудует маньяк. Чтобы разобраться в происходящем и найти серийного убийцу, в город приезжает следователь Генпрокуратуры Николай Горобец: он уже ловил маньяков, и кому, как не ему, заниматься этим делом. Однако местному прокурору Садовскому не до серийных убийств: в это время в городе идёт очередной передел собственности и власти, и ему хотелось бы избежать вмешательства Москвы. Но Садовский вынужден оказывать содействие в поисках убийцы, и, если до этого он торопил расследование, то сейчас быстрый успех столичного следователя не в его интересах; именно поэтому в команду Горобца определяют молодого следователя Светлану Мирошникову и ещё совсем «зелёного» оперативника Михаила Воробьёва.

Качество: WEB-DL 1080p
Формат: MKV

Видео: MPEG4 AVC Video, H264, 16:9, 1920x1080, 25 fps, ~6000 kbps, 0.116 bit/pixel
Аудио: AC3 Dolby Digital, 48.0 kHz, 2/0 (L,R) ch, 192 kbps
скриншот  скриншот  скриншот  скриншот  скриншот  

General
Unique ID : 197271457093409281929027475754350169282 (0x946919C378BA9B31B7F9D90A227E4CC2)
Complete name : D:\Ten.za.spinoy.2019.WEB-DL.(1080p).ExKinoRay\Ten.za.spinoy.(01.seriya).2019.WEB-DL.(1080p).ExKinoRay.mkv
Format : Matroska
Format version : Version 4 / Version 2
File size : 2.04 GiB
Duration : 47 min 56 s
Overall bit rate mode : Constant
Overall bit rate : 6 099 kb/s
Encoded date : UTC 2019-09-29 21:49:36
Writing application : mkvmerge v6.9.1 ('Blue Panther') 64bit built on Apr 18 2014 18:23:38
Writing library : libebml v1.3.0 + libmatroska v1.4.1

Video
ID : 1
Format : AVC
Format/Info : Advanced Video Codec
Format profile : High@L4.1
Format settings : 2 Ref Frames
Format settings, CABAC : No
Format settings, ReFrames : 2 frames
Codec ID : V_MPEG4/ISO/AVC
Duration : 47 min 56 s
Bit rate mode : Constant
Bit rate : 6 000 kb/s
Width : 1 920 pixels
Height : 1 080 pixels
Display aspect ratio : 16:9
Frame rate mode : Constant
Frame rate : 25.000 FPS
Standard : PAL
Color space : YUV
Chroma subsampling : 4:2:0
Bit depth : 8 bits
Scan type : Progressive
Bits/(Pixel*Frame) : 0.116
Stream size : 1.94 GiB (95%)
Default : Yes
Forced : No
Color range : Limited
Color primaries : BT.709
Transfer characteristics : BT.709
Matrix coefficients : BT.709

Audio
ID : 2
Format : AC-3
Format/Info : Audio Coding 3
Codec ID : A_AC3
Duration : 47 min 56 s
Bit rate mode : Constant
Bit rate : 192 kb/s
Channel(s) : 2 channels
Channel positions : Front: L R
Sampling rate : 48.0 kHz
Frame rate : 31.250 FPS (1536 SPF)
Bit depth : 16 bits
Compression mode : Lossy
Stream size : 65.8 MiB (3%)
Language : Russian
Service kind : Complete Main
Default : Yes
Forced : No

При каждом добавлении создаётся новый торрент. Чтобы начать докачку новой серии, пользователям необходимо сделать следующее:
- остановить скачивание;
- удалить старый торрент у себя из клиента (старые серии удалять не надо);
- скачать новый торрент и запустить его у себя в клиенте вместо старого, при этом указать клиенту путь в старую папку, куда и должно происходить скачивание новых серий.
pb.wtf



Скачать Тень за спиной через торрент https://img16.lostpic.net/2019/09/30/3bcd3bd690e8b41f5013ba98d46eb938.jpg Скачать фильм Тень за спиной через торрент бесплантно в хорошем качестве Описание: В небольшом провинциальном городке происходит череда преступлений. Убийства совершаются по одному сценарию: женщины исчезают во ... 10 10 3
Торрент: Зарегистрирован [2019-10-03 20:09] · скачан: 42 раз
Статус: √ проверено
Размер: 25.47 GB
Как cкачать? Как скачать Тень за спиной через торрент | qTorrent

% Раздел Тема Автор DL S | L
Наши сериалы [ 9.12 GB ] Тень за спиной / Сезон: 1 / Серии: 1-12 из 12 [2019 WEBRip-AVC] bober100 Скачать
2 | 1
Наши сериалы [ 17.44 GB ] Тень за спиной / Сезон: 1 / Серии: 1-12 из 12 [2019 WEB-DL 720p] bober100 Скачать
2 | 0
Наши сериалы [ 8.27 GB ] Тень за спиной / Сезон: 1 / Серии: 1-12 из 12 [2019 WEB-DLRip] bober100 Скачать
1 | 0
Наши сериалы [ 7.83 GB ] Тень за спиной / Сезон: 1 / Серии: 1-12 из 12 [2019 SATRip] bober100 Скачать
1 | 0

28-11-2019 20:33  

Отключить всю рекламу на сайте

    Дорогой пользователь! Огромная просьба, поблагодарите релизера, оцените раздачу и оставьте свои комментарий, если Вы скачали Тень за спиной через торрент бесплатно! Внесите свою лепту в развитие PiratBit!
    Комментировать посты могут только пользователи прошедшие не сложную регистрацию
    Показать сообщения:    

    Тень за спиной через торрент
    Скачать бесплатно Тень за спиной
    Тень за спиной скачать торрент
    Тень за спиной смотреть онлайн
    Cкачать фильм Тень за спиной бесплатно
    Тень за спиной скачать торрент в хорошем качестве
    Тень за спиной смотреть онлайн бесплатно в хорошем качестве


    Вы не можете начинать темы
    Вы не можете отвечать на сообщения
    Вы не можете редактировать свои сообщения
    Вы не можете удалять свои сообщения
    Вы не можете голосовать в опросах
    Вы не можете прикреплять файлы к сообщениям
    Вы можете скачивать файлы