Ссылка на приватное зеркало нашего сайта всего за 1$. Внимание количество ограничено!!!

2 сезон

iTunes

1 сезон

1

2 сезон

2 сезон

iTunes

1 сезон

RePack

30

Новинка

ВАЖНО

ИГРА 18+

pack

RePack

MK11
pack

Забери бонус

RePack

jed

!!Акция!!

Alien_Rage

RePack

fifa19

RePack

Assassins Creed: Odyssey

RePack

NEED FOR SPEED™ PAYBACK

4 сезон

9 сезон

Бесстыжие 9 сезон

Все сериалы

все сериалы на PB.wtf

RePack

FAR CRY 5
  

Человек-муравей / Ant-Man (Пейтон Рид) [2015, Фантастика, боевик, UHD BDRip 2160p] DUB (rus, ukr) [Лицензия] +AVO [Гаврилов] pb.wtf

Человек-муравей через торрент pb.wtf

Размер: 30.89 GB | Добавлен: 1 год 2 мес. назад | Торрент скачан:15 раз
Скачать  

01-10-2019 00:44 Человек-муравей Скачать торрент  

Человек-муравей / Ant-Man
Год выпуска: 2015
Страна: США, Великобритания
Жанр: Фантастика, боевик
Продолжительность: 01:57:25
Перевод:

#1: Дублированный | Лицензия
#2: Авторский | Гаврилов

Субтитры: Русские (Forced, full), украинские (Forced, full), английские

Режиссер: Пейтон Рид

rating

В ролях:

Пол Радд (Scott Lang / Ant-Man), Майкл Дуглас (Dr. Hank Pym), Эванджелин Лилли (Hope van Dyne), Кори Столл (Darren Cross / Yellowjacket), Майкл Пенья (Luis), Бобби Каннавале (Paxton), Ти-Ай (Dave), Давид Дастмалчян (Kurt), Эбби Райдер Фортсон (Cassie Lang), Джуди Грир (Maggie Lang), Энтони Маки (Sam Wilson / Falcon), Вуд Харрис (Gale)
Описание: Вооружившись удивительной способностью уменьшаться в размере, но обладать при этом большой силой, мошенник Скотт Лэнг должен стать героем и помочь своему наставнику, доктору Хэнку Пиму, сохранить в тайне существование костюма Человека-муравья от угроз нового поколения.

Качество: UHD BDRip 2160p
Формат: MKV

Видео: 3840x2076 at 23.976 fps, MPEG-H HEVC HDR Video, 30300 kbps avg
Аудио#1: 48 kHz, AC3, 5.1, 640 Kbps | Дублированный | RUS |
Аудио#2: 48 kHz, DTS-HD MA, 7.1, 4708 Kbps | Авторский | RUS |
Аудио#3: 48 kHz, DTS, 5.1, 1510 Kbps | Дублированный | UKR |
Аудио#4: 48 kHz, AC3, 5.1, 640 Kbps | Оригинал | ENG |
скриншот  скриншот  скриншот  скриншот  скриншот  

General
Unique ID : 148648497017373721985958442191464196255 (0x6FD4A8BEAB7E1A482B3FDA3CA55C689F)
Complete name : D:DownloadAnt-Man.2015.BDRip.2160p.HDR.seleZen.mkv
Format : Matroska
Format version : Version 4
File size : 30.9 GiB
Duration : 1 h 57 min
Overall bit rate mode : Variable
Overall bit rate : 37.7 Mb/s
Movie name : Ant-Man 2015 4K from селезень
Encoded date : UTC 2019-09-30 22:57:11
Writing application : mkvmerge v37.0.0 ('Leave It') 64-bit
Writing library : libebml v1.3.9 + libmatroska v1.5.2

Video
ID : 1
Format : HEVC
Format/Info : High Efficiency Video Coding
Format profile : Main 10@L5@Main
HDR format : SMPTE ST 2086, HDR10 compatible
Codec ID : V_MPEGH/ISO/HEVC
Duration : 1 h 57 min
Bit rate : 30.3 Mb/s
Width : 3 840 pixels
Height : 2 076 pixels
Display aspect ratio : 1.85:1
Frame rate mode : Constant
Frame rate : 23.976 (24000/1001) FPS
Color space : YUV
Chroma subsampling : 4:2:0
Bit depth : 10 bits
Bits/(Pixel*Frame) : 0.158
Stream size : 24.8 GiB (80%)
Title : Encoded by seleZen
Writing library : x265 3.2+3-fdd69a766881:[Windows][GCC 9.2.0][64 bit] 10bit
Encoding settings : cpuid=1111039 / frame-threads=4 / numa-pools=16 / wpp / no-pmode / no-pme / no-psnr / no-ssim / log-level=2 / input-csp=1 / input-res=3840x2076 / interlace=0 / total-frames=168464 / level-idc=0 / high-tier=1 / uhd-bd=0 / ref=3 / no-allow-non-conformance / repeat-headers / annexb / no-aud / no-hrd / info / hash=0 / no-temporal-layers / open-gop / min-keyint=24 / keyint=240 / gop-lookahead=0 / bframes=4 / b-adapt=2 / b-pyramid / bframe-bias=0 / rc-lookahead=20 / lookahead-slices=8 / scenecut=40 / radl=0 / no-splice / no-intra-refresh / ctu=64 / min-cu-size=8 / no-rect / no-amp / max-tu-size=32 / tu-inter-depth=1 / tu-intra-depth=1 / limit-tu=0 / rdoq-level=0 / dynamic-rd=0.00 / no-ssim-rd / signhide / no-tskip / nr-intra=0 / nr-inter=0 / no-constrained-intra / strong-intra-smoothing / max-merge=3 / limit-refs=1 / no-limit-modes / me=1 / subme=2 / merange=57 / temporal-mvp / no-hme / weightp / no-weightb / no-analyze-src-pics / deblock=0:0 / sao / no-sao-non-deblock / rd=3 / selective-sao=4 / early-skip / rskip / no-fast-intra / no-tskip-fast / no-cu-lossless / b-intra / no-splitrd-skip / rdpenalty=0 / psy-rd=2.00 / psy-rdoq=0.00 / no-rd-refine / no-lossless / cbqpoffs=0 / crqpoffs=0 / rc=crf / crf=5.0 / qcomp=0.60 / qpstep=4 / stats-write=0 / stats-read=0 / ipratio=1.40 / pbratio=1.30 / aq-mode=2 / aq-strength=1.00 / cutree / zone-count=0 / no-strict-cbr / qg-size=32 / no-rc-grain / qpmax=69 / qpmin=0 / no-const-vbv / sar=1 / overscan=0 / videoformat=5 / range=0 / colorprim=9 / transfer=16 / colormatrix=9 / chromaloc=0 / display-window=0 / master-display=G(13250,34500)B(7500,3000)R(34000,16000)WP(15635,16450)L(40000000,50) / cll=577,512 / min-luma=0 / max-luma=1023 / log2-max-poc-lsb=8 / vui-timing-info / vui-hrd-info / slices=1 / no-opt-qp-pps / no-opt-ref-list-length-pps / no-multi-pass-opt-rps / scenecut-bias=0.05 / no-opt-cu-delta-qp / no-aq-motion / hdr / no-hdr-opt / no-dhdr10-opt / no-idr-recovery-sei / analysis-reuse-level=5 / scale-factor=0 / refine-intra=0 / refine-inter=0 / refine-mv=1 / refine-ctu-distortion=0 / no-limit-sao / ctu-info=0 / no-lowpass-dct / refine-analysis-type=0 / copy-pic=1 / max-ausize-factor=1.0 / no-dynamic-refine / no-single-sei / no-hevc-aq / no-svt / no-field / qp-adaptation-range=1.00
Language : English
Default : Yes
Forced : No
Color range : Limited
Color primaries : BT.2020
Transfer characteristics : PQ
Matrix coefficients : BT.2020 non-constant
Mastering display color pri : Display P3
Mastering display luminance : min: 0.0050 cd/m2, max: 4000 cd/m2
Maximum Content Light Level : 577 cd/m2
Maximum Frame-Average Light : 512 cd/m2

Audio #1
ID : 2
Format : AC-3
Format/Info : Audio Coding 3
Commercial name : Dolby Digital
Codec ID : A_AC3
Duration : 1 h 57 min
Bit rate mode : Constant
Bit rate : 640 kb/s
Channel(s) : 6 channels
Channel layout : L R C LFE Ls Rs
Sampling rate : 48.0 kHz
Frame rate : 31.250 FPS (1536 SPF)
Bit depth : 16 bits
Compression mode : Lossy
Stream size : 536 MiB (2%)
Title : Dub [License]
Language : Russian
Service kind : Complete Main
Default : Yes
Forced : Yes

Audio #2
ID : 3
Format : DTS XLL
Format/Info : Digital Theater Systems
Commercial name : DTS-HD Master Audio
Codec ID : A_DTS
Duration : 1 h 57 min
Bit rate mode : Variable
Bit rate : 4 708 kb/s
Channel(s) : 8 channels
Channel layout : C L R LFE Lb Rb Lss Rss
Sampling rate : 48.0 kHz
Frame rate : 93.750 FPS (512 SPF)
Bit depth : 24 bits
Compression mode : Lossless
Stream size : 3.85 GiB (12%)
Title : AVO [Gavrilov]
Language : Russian
Default : No
Forced : No

Audio #3
ID : 4
Format : DTS
Format/Info : Digital Theater Systems
Codec ID : A_DTS
Duration : 1 h 57 min
Bit rate mode : Constant
Bit rate : 1 509 kb/s
Channel(s) : 6 channels
Channel layout : C L R Ls Rs LFE
Sampling rate : 48.0 kHz
Frame rate : 93.750 FPS (512 SPF)
Bit depth : 24 bits
Compression mode : Lossy
Stream size : 1.24 GiB (4%)
Title : Dub
Language : Ukrainian
Default : No
Forced : No

Audio #4
ID : 5
Format : AC-3
Format/Info : Audio Coding 3
Commercial name : Dolby Digital
Codec ID : A_AC3
Duration : 1 h 57 min
Bit rate mode : Constant
Bit rate : 640 kb/s
Channel(s) : 6 channels
Channel layout : L R C LFE Ls Rs
Sampling rate : 48.0 kHz
Frame rate : 31.250 FPS (1536 SPF)
Bit depth : 16 bits
Compression mode : Lossy
Stream size : 536 MiB (2%)
Title : Original
Language : English
Service kind : Complete Main
Default : No
Forced : No

Text #1
ID : 6
Format : UTF-8
Codec ID : S_TEXT/UTF8
Codec ID/Info : UTF-8 Plain Text
Duration : 1 h 54 min
Bit rate : 0 b/s
Count of elements : 4
Stream size : 157 Bytes (0%)
Title : Forced
Language : Russian
Default : Yes
Forced : Yes

Text #2
ID : 7
Format : UTF-8
Codec ID : S_TEXT/UTF8
Codec ID/Info : UTF-8 Plain Text
Duration : 1 h 56 min
Bit rate : 87 b/s
Count of elements : 1537
Stream size : 74.8 KiB (0%)
Title : Full
Language : Russian
Default : No
Forced : No

Text #3
ID : 8
Format : UTF-8
Codec ID : S_TEXT/UTF8
Codec ID/Info : UTF-8 Plain Text
Duration : 1 h 54 min
Bit rate : 0 b/s
Count of elements : 3
Stream size : 148 Bytes (0%)
Title : Forced
Language : Ukrainian
Default : No
Forced : No

Text #4
ID : 9
Format : UTF-8
Codec ID : S_TEXT/UTF8
Codec ID/Info : UTF-8 Plain Text
Duration : 1 h 56 min
Bit rate : 83 b/s
Count of elements : 1521
Stream size : 71.4 KiB (0%)
Title : Full
Language : Ukrainian
Default : No
Forced : No

Text #5
ID : 10
Format : UTF-8
Codec ID : S_TEXT/UTF8
Codec ID/Info : UTF-8 Plain Text
Duration : 1 h 56 min
Bit rate : 56 b/s
Count of elements : 1543
Stream size : 47.9 KiB (0%)
Title : Full
Language : English
Default : No
Forced : No

Menu
00:00:00.000 : en:The Pym Particle
00:02:08.503 : en:Scott Released From Prison
00:08:39.853 : en:Tales To Astonish
00:15:24.507 : en:Be The Person She Already Thinks You Are
00:19:59.407 : en:The Vault
00:27:49.877 : en:Trial By Water
00:33:06.902 : en:A Second Chance
00:38:53.623 : en:Sugar?
00:44:36.132 : en:Become The Hero
00:49:22.126 : en:Meeting The Team
00:57:43.919 : en:Revisiting The Past
01:00:48.478 : en:Hi, I'm Scott
01:06:31.196 : en:In The System
01:23:20.954 : en:Disintegration
01:34:20.196 : en:End Of The Line
01:47:33.906 : en:Epilogue

pb.wtf



Скачать Человек-муравей через торрент https://img16.lostpic.net/2019/09/28/4ad4ef730db4634ae87377b86c3c5abd.jpg Скачать фильм Человек-муравей через торрент бесплантно в хорошем качестве Описание: Вооружившись удивительной способностью уменьшаться в размере, но обладать при этом большой силой, мошенник Скотт Лэнг должен ... 10 10 2
Торрент: Зарегистрирован [2019-10-01 00:44] · скачан: 15 раз
Статус: √ проверено
Размер: 30.89 GB
Как cкачать? Как скачать Человек-муравей через торрент | qTorrent

% Раздел Тема Автор DL S | L
Сборники и Сиквелы (48-60 fps) [ 8.46 GB ] Человек-муравей: Дилогия / Ant-Man: Dilogy [2015-2018 BDRip - HEVC 1080p 10 bit 60 FPS] Dub dd2d3 Скачать
2 | 0
Фильмы (HD 720p, 1080p) (48-60 fps) [ 15.71 GB ] Человек-муравей - Ant-Man [2015 BDRip - HEVC 1080p 12 bit 60 FPS] dd2d3 Скачать
1 | 2
? Оформление раздач (Кино, Видео и ТВ) [ 6.77 GB ] Человек-муравей / Ant-Man [2015 BDRip 720p / 60 FPS ] от mimok 50000 Скачать
1 | 0
Фильмы 2018 [DVDrip, WEB-DLRip, HDrip] (DUB, MVO) [ 2.76 GB ] Человек-муравей и Оса / Ant-Man and the Wasp [2018 WEBRip-AVC Dub AVO][Open Matte] от ExKinoRay morfyi Скачать
3 | 0
Ultra HD (UHD: 2K, 4K, 8K) — видео сверхвысокой чёткости [ 51.3 GB ] Человек-муравей / Ant-Man [2015 UHD BDRemux 2160p] DUB [] +AVO [Гаврилов] bober100 Скачать
1 | 0
Ultra HD (UHD: 2K, 4K, 8K) — видео сверхвысокой чёткости [ 45.21 GB ] Человек-муравей и Оса / Ant-Man and the Wasp [2018 UHD BDRemux 2160p] DUB [] + AVO [М. Чадов] sheker187 Скачать
2 | 0
Ultra HD (UHD: 2K, 4K, 8K) — видео сверхвысокой чёткости [ 49.92 GB ] Человек-муравей и Оса / Ant-Man and the Wasp [2018 UHD Blu-ray 2160p] DUB [] sheker187 Скачать
1 | 0

28-11-2019 20:33  

Отключить всю рекламу на сайте

    Дорогой пользователь! Огромная просьба, поблагодарите релизера, оцените раздачу и оставьте свои комментарий, если Вы скачали Человек-муравей через торрент бесплатно! Внесите свою лепту в развитие PiratBit!
    Комментировать посты могут только пользователи прошедшие не сложную регистрацию
    Показать сообщения:    

    Человек-муравей через торрент
    Скачать бесплатно Человек-муравей
    Человек-муравей скачать торрент
    Человек-муравей смотреть онлайн
    Cкачать фильм Человек-муравей бесплатно
    Человек-муравей скачать торрент в хорошем качестве
    Человек-муравей смотреть онлайн бесплатно в хорошем качестве


    Вы не можете начинать темы
    Вы не можете отвечать на сообщения
    Вы не можете редактировать свои сообщения
    Вы не можете удалять свои сообщения
    Вы не можете голосовать в опросах
    Вы не можете прикреплять файлы к сообщениям
    Вы можете скачивать файлы