новый адрес пиратбит piratbit
Мега распродажа FORZA HORIZON 4 ULTIMATE+ВСЕ DLC+ОНЛАЙН всего за 499р. 349 руб. (супер цена). Внимание количество ограничено!!!

iTunes

1+1

iTunes

мы

iTunes

1

iTunes

Чернобыль

iTunes

Ральф против интернета

Лицензия

ПШазам

Лицензия

Игра престолов

Лицензия

30
pack

ВАЖНО

!!Акция!!

Alien_RageХит недели

RePack

Resident Evil 21

ИГРА 18+

pack

RePack

Metro:Exodus

!!Акция!!

Alien_Rage

RePack

fifa19

RePack

Assassins Creed: Odyssey

RePack

NEED FOR SPEED™ PAYBACK

3 сезон

9 сезон

Бесстыжие 9 сезон

Все сериалы

все сериалы на PB.wtf

RePack

FAR CRY 5
Ребята, катастрофически не хватает 1900р. для оплаты серверов за Октябрь (всвязи с блокировками трафик упал в 3 раза), 1-2р., выручайте.
  

Под подозрением / Склонность / Bent (Роберт Мореско) [2018, Триллер, криминал, BDRip-AVC] MVO [iTunes] pb.wtf

Под подозрением через торрент pb.wtf

Раздают: 6 [ 54 KB/s ]
Размер: 1.77 GB | Добавлен: 1 мес. 12 д. назад | Торрент скачан:103 раза
Скачать  

01-10-2019 04:39 Под подозрением Скачать торрент  

Под подозрением / Склонность / Bent«Corruption has its own set of rules»
Год выпуска: 2018
Страна: Испания, США
Жанр: Триллер, криминал
Продолжительность: 01:36:31
Перевод: Профессиональный многоголосый | iTunes
Субтитры: Английские

Режиссер: Роберт Мореско

rating

В ролях: Карл Урбан, София Вергара, Энди Гарсиа, Винсент Спано, Джон Финн, Грейс Байерс, Тоня Корнелисс, Патрик Бреннан, Мэттью Рейнольдс, Шарлотта Брэдли

Описание: Бывший полицейский из отдела по наркоконтролю Дэнни Галлахэр, выйдя из тюрьмы, стремится отомстить лжесвидетелю и убийце своего напарника. Нити расследования выводят Дэнни на другое загадочное убийство и масштабный государственный заговор.

Качество: BDRip-AVC
Формат: MKV

Видео: 1024x426 (2.40:1), 23,976 fps, x264 ~1 784 kbps avg, 0.171 bit/pixel
Аудио#1: 48 kHz, AC3 Dolby Digital, 3/2 (L,C,R,l,r) + LFE ch, ~384.00 kbps avg | RUS (iTunes)
Аудио#2: 48 kHz, AC3 Dolby Digital, 3/2 (L,C,R,l,r) + LFE ch, ~448.00 kbps avg | ENG
скриншот  скриншот  скриншот  скриншот  скриншот  

Общее
Уникальный идентификатор : 245464378940135900205219116217270186995 (0xB8AAB842B9421EBB332427CFE37EB3F3)
Полное имя : F:OlLanDGroupBent.2018.BDRip(AVC).OllanDGroup.mkv
Формат : Matroska
Версия формата : Version 4 / Version 2
Размер файла : 1,77 Гбайт
Продолжительность : 1 ч. 36 м.
Общий поток : 2613 Кбит/сек
Название фильма : Bent 2018 #TorpedoUK#
Дата кодирования : UTC 2019-10-01 02:17:35
Программа кодирования : mkvmerge v29.0.0 ('Like It Or Not') 64-bit
Библиотека кодирования : libebml v1.3.6 + libmatroska v1.4.9

Видео
Идентификатор : 1
Формат : AVC
Формат/Информация : Advanced Video Codec
Профиль формата : High@L4.1
Параметр CABAC формата : Да
Параметр ReFrames формата : 10 кадров
Идентификатор кодека : V_MPEG4/ISO/AVC
Продолжительность : 1 ч. 36 м.
Битрейт : 1784 Кбит/сек
Ширина : 1024 пикселя
Высота : 426 пикселей
Соотношение сторон : 2,40:1
Режим частоты кадров : Постоянный
Частота кадров : 23,976 (24000/1001) кадра/сек
Цветовое пространство : YUV
Субдискретизация насыщенности : 4:2:0
Битовая глубина : 8 бит
Тип развёртки : Прогрессивная
Бит/(Пиксели*Кадры) : 0.171
Размер потока : 1,20 Гбайт (68%)
Библиотека кодирования : x264 core 146 r2538 121396c
Настройки программы : cabac=1 / ref=10 / deblock=1:-3:-3 / analyse=0x3:0x113 / me=umh / subme=11 / psy=1 / psy_rd=0.98:0.04 / mixed_ref=1 / me_range=48 / chroma_me=1 / trellis=2 / 8x8dct=1 / cqm=0 / deadzone=21,11 / fast_pskip=1 / chroma_qp_offset=-6 / threads=6 / lookahead_threads=1 / sliced_threads=0 / nr=0 / decimate=1 / interlaced=0 / bluray_compat=0 / constrained_intra=0 / bframes=11 / b_pyramid=2 / b_adapt=2 / b_bias=0 / direct=3 / weightb=1 / open_gop=0 / weightp=2 / keyint=240 / keyint_min=23 / scenecut=40 / intra_refresh=0 / rc_lookahead=40 / rc=2pass / mbtree=0 / bitrate=1784 / ratetol=1.0 / qcomp=0.60 / qpmin=0 / qpmax=69 / qpstep=4 / cplxblur=20.0 / qblur=0.5 / vbv_maxrate=50000 / vbv_bufsize=62500 / nal_hrd=none / filler=0 / ip_ratio=1.40 / pb_ratio=1.30 / aq=1:1.00
Язык : English
Default : Да
Forced : Нет

Аудио #1
Идентификатор : 2
Формат : AC-3
Формат/Информация : Audio Coding 3
Расширение режима : CM (complete main)
Параметр Endianness формата : Big
Идентификатор кодека : A_AC3
Продолжительность : 1 ч. 36 м.
Вид битрейта : Постоянный
Битрейт : 384 Кбит/сек
Каналы : 6 каналов
Расположение каналов : Front: L C R, Side: L R, LFE
Частота : 48,0 КГц
Частота кадров : 31,250 кадров/сек (1536 spf)
Битовая глубина : 16 бит
Метод сжатия : С потерями
Размер потока : 266 Мбайт (15%)
Заголовок : MVO [iTunes]
Язык : Russian
Default : Да
Forced : Нет

Аудио #2
Идентификатор : 3
Формат : AC-3
Формат/Информация : Audio Coding 3
Расширение режима : CM (complete main)
Параметр Endianness формата : Big
Идентификатор кодека : A_AC3
Продолжительность : 1 ч. 36 м.
Вид битрейта : Постоянный
Битрейт : 448 Кбит/сек
Каналы : 6 каналов
Расположение каналов : Front: L C R, Side: L R, LFE
Частота : 48,0 КГц
Частота кадров : 31,250 кадров/сек (1536 spf)
Битовая глубина : 16 бит
Метод сжатия : С потерями
Размер потока : 310 Мбайт (17%)
Заголовок : [Original]
Язык : English
Default : Нет
Forced : Нет

Текст
Идентификатор : 4
Формат : UTF-8
Идентификатор кодека : S_TEXT/UTF8
Идентификатор кодека/Информация : UTF-8 Plain Text
Продолжительность : 1 ч. 27 м.
Битрейт : 54 бит/сек
Count of elements : 1089
Размер потока : 35,4 Кбайт (0%)
Заголовок : Full
Язык : English
Default : Нет
Forced : Нет

Меню
00:00:00.000 : en:Chapter 1
00:11:47.331 : en:Chapter 2
00:24:47.569 : en:Chapter 3
00:37:57.400 : en:Chapter 4
00:49:53.573 : en:Chapter 5
01:02:14.564 : en:Chapter 6
01:18:49.975 : en:Chapter 7
01:30:52.738 : en:Chapter 8

pb.wtf



Скачать Под подозрением через торрент https://i87.fastpic.ru/big/2019/0926/3d/b5366dfbd11615b50a5c08c3e89bcb3d.jpg Скачать фильм Под подозрением через торрент бесплантно в хорошем качестве Описание: Бывший полицейский из отдела по наркоконтролю Дэнни Галлахэр, выйдя из тюрьмы, стремится отомстить лжесвидетелю и убийце своего ... 10 10 4
Торрент: Зарегистрирован [2019-10-01 04:39] · скачан: 103 раз
Статус: √ проверено
Размер: 1.77 GB
Как cкачать? Как скачать Под подозрением через торрент | qTorrent

% Раздел Тема Автор DL S | L
Фильмы (Blu-ray, BD-Remux, HDDVD) [ 22.54 GB ] Под подозрением / Склонность / Bent [2018 BD Remux 1080p] MVO bober100 Скачать
2 | 0
Фильмы 2018 [DVDrip, WEB-DLRip, HDrip] (DUB, MVO) [ 1.46 GB ] Под подозрением / Склонность / Bent [2018 BDRip] MVO bober100 Скачать
13 | 0
Фильмы [HD 720p, 1080p] (Хороший звук DUB, MVO) [ 7.17 GB ] Под подозрением / Склонность / Bent [2018 BDRip 1080p] MVO bober100 Скачать
3 | 0


>> Регистрируемся здесь <<






Отзывы и комментарии о схеме читаем и пишем здесь: ---> Отзывы и комментарии о схеме

Новые благодарочки в телеграм довольных пользователей:
скриншот   скриншот   скриншот   скриншот   скриншот

01-10-2019 17:00 Под подозрением Скачать торрент  

ИМХО, фильм на один раз глянуть. Сюжет рваный, главный герой как альфа-самец постоянно имеет успех у женщин, не обошли стороной модную тему ЛГБТ. Концовка вроде понятна, но все равно не дает покоя вопрос - и ради этого нужно было бегать/прыгать/кувыркаться? Даже экшн-сцены какие-то убогие. Оценка - 4 из 10.
Релизеру спасибо!pb.wtf



    Дорогой пользователь! Огромная просьба, поблагодарите релизера, оцените раздачу и оставьте свои комментарий, если Вы скачали Под подозрением через торрент бесплатно! Внесите свою лепту в развитие PiratBit!
    Комментировать посты могут только пользователи прошедшие не сложную регистрацию
    Показать сообщения:    

    Под подозрением через торрент
    Скачать бесплатно Под подозрением
    Под подозрением скачать торрент
    Под подозрением смотреть онлайн
    Cкачать фильм Под подозрением бесплатно
    Под подозрением скачать торрент в хорошем качестве
    Под подозрением смотреть онлайн бесплатно в хорошем качестве


    Вы не можете начинать темы
    Вы не можете отвечать на сообщения
    Вы не можете редактировать свои сообщения
    Вы не можете удалять свои сообщения
    Вы не можете голосовать в опросах
    Вы не можете прикреплять файлы к сообщениям
    Вы можете скачивать файлы