Ссылка на приватное зеркало нашего сайта всего за 1$. Внимание количество ограничено!!!

2 сезон

iTunes

1 сезон

1

2 сезон

2 сезон

iTunes

1 сезон

RePack

30

Новинка

ВАЖНО

ИГРА 18+

pack

RePack

MK11
pack

Забери бонус

RePack

jed

!!Акция!!

Alien_Rage

RePack

fifa19

RePack

Assassins Creed: Odyssey

RePack

NEED FOR SPEED™ PAYBACK

4 сезон

9 сезон

Бесстыжие 9 сезон

Все сериалы

все сериалы на PB.wtf

RePack

FAR CRY 5
  

Пустая пуля / Безбашенная пуля / Hollow Point (Дэниэл Дзирилли) [2019, Боевик, WEB-DL 720p] DUB [iTunes] pb.wtf

Пустая пуля через торрент pb.wtf

Размер: 2.66 GB | Добавлен: 1 год 1 мес. назад | Торрент скачан:80 раз
Скачать  

01-10-2019 05:09 Пустая пуля Скачать торрент  

Пустая пуля / Безбашенная пуля / Hollow Point
Год выпуска: 2019
Страна: США
Жанр: Боевик
Продолжительность: 01:25:55
Перевод: Дублированный | iTunes
Субтитры: отсутствуют

Режиссер: Дэниэл Дзирилли

rating

В ролях: Люк Госс, Дилан Джей, Жужу Чан, Джей Мор, Билл Дьюк, Майкл Паре, Роджер Гуэнвёр Смит, Наталия Гуслистая, Гари Кейрнс II, Энтони Халл

Описание: Когда жену и дочь Нолана бессмысленно убивают, скорбящий мужчина оказывается втянутым в войну между борцами за справедливость и преступниками, наводнившими их город.

Качество: WEB-DL 720p
Формат: MKV

Видео: MPEG-4 AVC, 3957 Kбит/с, 1280@960x672
Аудио: AC3, 48 kHz, 6 ch, ~384.00 kbps avg | русский | iTunes
скриншот  скриншот  скриншот  скриншот  скриншот  

General
Уникальный идентификатор : 243820478228656494070400624157525248472 (0xB76E1DB2AB883A13BE41C14683D389D8)
Полное имя : D:\ФИЛЬМЫ\Hollow.Point.2019.WEB-DL.720p.ELEKTRI4KA.UNIONGANG.mkv
Формат : Matroska
Версия формата : Version 2
Размер файла : 2.66 GiB
Продолжительность : 1 h 25 min
Общий поток : 4 430 kb/s
Название фильма : Hollow.Point .2019.ELEKTRI4KA.UNIONGANG
Дата кодирования : UTC 2019-09-29 18:37:22
Программа кодирования : mkvmerge v7.8.0 ('River Man') 32bit built on Apr 3 2015 12:11:22
Библиотека кодирования : libebml v1.3.1 + libmatroska v1.4.2

Video
Идентификатор : 2
Формат : AVC
Формат/Информация : Advanced Video Codec
Профиль формата : Main@L3.1
Настройки формата : 2 Ref Frames
Параметр CABAC формата : No
Параметр RefFrames формата : 2 frames
Идентификатор кодека : V_MPEG4/ISO/AVC
Продолжительность : 1 h 25 min
Битрейт : 3 957 kb/s
Ширина : 960 pixels
Высота : 672 pixels
Соотношение сторон : 1.905
Режим частоты кадров : Constant
Частота кадров : 25.000 FPS
Цветовое пространство : YUV
Субдискретизация насыщенности : 4:2:0
Битовая глубина : 8 bits
Тип развёртки : Progressive
Бит/(Пиксели*Кадры) : 0.245
Размер потока : 2.37 GiB (89%)
Язык : English
Default : Yes
Forced : No
Цветовой диапазон : Limited
Основные цвета : BT.709
Характеристики трансфера : BT.709
Коэффициенты матрицы : BT.709

Audio
Идентификатор : 1
Формат : AC-3
Формат/Информация : Audio Coding 3
Идентификатор кодека : A_AC3
Продолжительность : 1 h 25 min
Вид битрейта : Constant
Битрейт : 384 kb/s
Каналы : 6 channels
Расположение каналов : Front: L C R, Side: L R, LFE
Частота : 48.0 kHz
Частота кадров : 31.250 FPS (1536 SPF)
Битовая глубина : 16 bits
Метод сжатия : Lossy
Размер потока : 236 MiB (9%)
Язык : Russian
ServiceKind/String : Complete Main
Default : Yes
Forced : No

Menu
00:00:00.000 : en:Глава 1
00:08:25.800 : en:Глава 2
00:16:33.360 : en:Глава 3
00:25:04.119 : en:Глава 4
00:33:53.718 : en:Глава 5
00:43:10.078 : en:Глава 6
00:51:18.117 : en:Глава 7
00:59:20.477 : en:Глава 8
01:08:18.597 : en:Глава 9
01:16:48.956 : en:Глава 10

pb.wtf



Скачать Пустая пуля через торрент https://b.radikal.ru/b21/1909/f7/85c8518eb880.jpg Скачать фильм Пустая пуля через торрент бесплантно в хорошем качестве Описание: Когда жену и дочь Нолана бессмысленно убивают, скорбящий мужчина оказывается втянутым в войну между борцами за справедливость и ... 9.7 10 6
Торрент: Зарегистрирован [2019-10-01 05:09] · скачан: 80 раз
Статус: √ проверено
Размер: 2.66 GB
Как cкачать? Как скачать Пустая пуля через торрент | qTorrent

% Раздел Тема Автор DL S | L
Фильмы (WEB-DL 720p, 1080p) [ 3.33 GB ] Пустая пуля / Безбашенная пуля / Hollow Point [2019 WEB-DL 1080p] bober100 Скачать
2 | 0
T Фильмы (мультфильмы) cо спонсором показа (Новинки AVI/MKV) [ 3.43 GB ] Пустая пуля / Безбашенная пуля / Hollow Point [2019 WEB-DL 720p] DUB [Line] bober100 Скачать
1 | 0
Фильмы 2019-2020 [DVDrip, WEB-DLRip, HDrip] (DUB, MVO) [ 1.37 GB ] Пустая пуля / Безбашенная пуля / Hollow Point [2019 WEB-DLRip] bober100 Скачать
1 | 0

28-11-2019 20:33  

Отключить всю рекламу на сайте

    Дорогой пользователь! Огромная просьба, поблагодарите релизера, оцените раздачу и оставьте свои комментарий, если Вы скачали Пустая пуля через торрент бесплатно! Внесите свою лепту в развитие PiratBit!
    Комментировать посты могут только пользователи прошедшие не сложную регистрацию
    Показать сообщения:    

    Пустая пуля через торрент
    Скачать бесплатно Пустая пуля
    Пустая пуля скачать торрент
    Пустая пуля смотреть онлайн
    Cкачать фильм Пустая пуля бесплатно
    Пустая пуля скачать торрент в хорошем качестве
    Пустая пуля смотреть онлайн бесплатно в хорошем качестве


    Вы не можете начинать темы
    Вы не можете отвечать на сообщения
    Вы не можете редактировать свои сообщения
    Вы не можете удалять свои сообщения
    Вы не можете голосовать в опросах
    Вы не можете прикреплять файлы к сообщениям
    Вы можете скачивать файлы