Всегда рабочее зеркало без VPN и Proxy просто перед .vidak.icu напиши любое слово или цифру, Пример http://hsc1.vidak.icu

MVO

Лицензия

1 сезон

1

1 сезон

iTunes

1 сезон

13

1 сезон

Deluxe

pack

Рекомендуем

Repack

30

ВАЖНО

RePack

MK11

RePack

jed

RePack

fifa19

RePack

RDR2

RePack

NEED FOR SPEED™ PAYBACK

Кинопоиск HD

6 сезон

 Острые козырьки 6 сезон

Все сериалы

все сериалы на PB.wtf

RePack

FAR CRY 5
  
Magnet ссылка

Люди в черном: Интернэшнл / Men in Black International (Ф. Гэри Грей) [2019, фантастика, боевик, комедия, приключения, BDRip 720p] DUB [Лицензия], MVO - ExKinoRay pb.wtf

Люди в черном: Интернэшнл через торрент pb.wtf

Раздают: 4 [ 0 KB/s ] Качают: 1 [ 0 KB/s ]
Размер: 4.98 GB | Добавлен: 2 года 9 мес. назад | Торрент скачан:816 раз
Смотреть онлайн Люди в черном: Интернэшнл | Скачать    Ребята, помогите собрать деньги на оплату серверов!!!

01-10-2019 11:58 Люди в черном: Интернэшнл Скачать торрент  

Название: Люди в черном: Интернэшнл
Оригинальное название: Men in Black International
Год выхода: 2019
Жанр: Фантастика, боевик, комедия, приключения
Режиссер: Ф. Гэри Грей
В ролях: Тесса Томпсон, Крис Хемсворт, Кумэйл Нанджиани, Ребекка Фергюсон (II), Эмма Томпсон, Лиам Нисон, Рейф Сполл, Кайван Новак, Спенсер Уайлдинг, Марси Хэрриэл, Джесс Радомска, Виктория Фэйт, Аня Совински, Инни Клемонс, Стивен Уайт, Джефф Ким

О фильме: Люди в черном, тайная организация на страже покоя и безопасности Земли, уже не раз защищали нас от нападения отбросов Вселенной. На этот раз самая большая опасность для мирового сообщества, которой агентам предстоит противостоять - шпион в их рядах.

rating

Страна: Великобритания, США
Студия: Columbia Pictures, Sony Pictures Entertainment (SPE), Amblin Entertainment
Продолжительность: 01:54:49
Перевод: Дублированный | [Лицензия]
Профессиональный многоголосый | [HDRezka Studio]

Качество: BDRip 720p
Видео: MPEG-4 AVC, 4091 Kбит/с, 1280x638, 23.976 кадр/с
Аудио #01: 48 kHz, AC3, 5.1, 640 Kbps | Лицензия | RUS |
Аудио #02: 48 kHz, AC3, 2.0, 192 Kbps | HDRezka Studio | RUS |
Аудио #03: 48 kHz, AC3, 5.1, 640 Kbps | Лицензия | UKR
Аудио #04: 48 kHz, AC3, 5.1, 640 Kbps | Оригинал | ENG |
Субтитры: Русские (форс., полные), украинские (форс., полные), английские (полные, SDH)
x264 [info]: frame I:1738 Avg QP:13.55 size:118769
x264 [info]: frame P:41728 Avg QP:16.58 size: 40488
x264 [info]: frame B:121726 Avg QP:19.08 size: 13368
_________________________________________________________
General
Unique ID : 194585339011280440017695062931516409725 (0x9263C5EACD8581C28E5871C54A37C77D)
Complete name : F:\Men.in.Black.International.2019.2xRusBDRip.720p.ExKinoRay.mkv
Format : Matroska
Format version : Version 2
File size : 4.98 GiB
Duration : 1 h 54 min
Overall bit rate : 6 206 kb/s
Movie name : Men in Black International 2019 from ExKinoRay
Encoded date : UTC 2019-10-01 11:26:36
Writing application : mkvmerge v5.6.0 ('Kenya Kane') built on May 27 2012 16:44:04
Writing library : libebml v1.2.3 + libmatroska v1.3.0

Video
ID : 1
Format : AVC
Format/Info : Advanced Video Codec
Format profile : [email protected]
Format settings, CABAC : Yes
Format settings, ReFrames : 10 frames
Codec ID : V_MPEG4/ISO/AVC
Duration : 1 h 54 min
Bit rate : 4 091 kb/s
Width : 1 280 pixels
Height : 638 pixels
Display aspect ratio : 2.006
Frame rate mode : Constant
Frame rate : 23.976 (24000/1001) FPS
Color space : YUV
Chroma subsampling : 4:2:0
Bit depth : 8 bits
Scan type : Progressive
Bits/(Pixel*Frame) : 0.209
Stream size : 3.18 GiB (64%)
Title : Enigma
Writing library : x264 core 148 r2638 7599210
Encoding settings : cabac=1 / ref=10 / deblock=1:-3:-3 / analyse=0x3:0x113 / me=umh / subme=11 / psy=1 / psy_rd=1.00:0.00 / mixed_ref=1 / me_range=32 / chroma_me=1 / trellis=2 / 8x8dct=1 / cqm=0 / deadzone=21,11 / fast_pskip=0 / chroma_qp_offset=-2 / threads=12 / lookahead_threads=3 / sliced_threads=0 / nr=0 / decimate=1 / interlaced=0 / bluray_compat=0 / constrained_intra=0 / bframes=10 / b_pyramid=2 / b_adapt=2 / b_bias=0 / direct=3 / weightb=1 / open_gop=0 / weightp=2 / keyint=240 / keyint_min=23 / scenecut=40 / intra_refresh=0 / rc=2pass / mbtree=0 / bitrate=4091 / ratetol=1.0 / qcomp=0.60 / qpmin=0 / qpmax=51 / qpstep=4 / cplxblur=20.0 / qblur=0.5 / ip_ratio=1.28 / pb_ratio=1.30 / aq=2:1.00
Default : Yes
Forced : No
Color range : Limited
Color primaries : BT.709
Transfer characteristics : BT.709
Matrix coefficients : BT.709

Audio #1
ID : 2
Format : AC-3
Format/Info : Audio Coding 3
Mode extension : CM (complete main)
Format settings, Endianness : Big
Codec ID : A_AC3
Duration : 1 h 54 min
Bit rate mode : Constant
Bit rate : 640 kb/s
Channel(s) : 6 channels
Channel positions : Front: L C R, Side: L R, LFE
Sampling rate : 48.0 kHz
Frame rate : 31.250 FPS (1536 spf)
Compression mode : Lossy
Stream size : 526 MiB (10%)
Title : Dub (Blu-Ray)
Language : Russian
Default : Yes
Forced : No

Audio #2
ID : 3
Format : AC-3
Format/Info : Audio Coding 3
Mode extension : CM (complete main)
Format settings, Endianness : Big
Codec ID : A_AC3
Duration : 1 h 54 min
Bit rate mode : Constant
Bit rate : 640 kb/s
Channel(s) : 6 channels
Channel positions : Front: L C R, Side: L R, LFE
Sampling rate : 48.0 kHz
Frame rate : 31.250 FPS (1536 spf)
Compression mode : Lossy
Stream size : 526 MiB (10%)
Title : Blu-Ray
Language : Ukrainian
Default : No
Forced : No

Audio #3
ID : 4
Format : AC-3
Format/Info : Audio Coding 3
Mode extension : CM (complete main)
Format settings, Endianness : Big
Codec ID : A_AC3
Duration : 1 h 54 min
Bit rate mode : Constant
Bit rate : 192 kb/s
Channel(s) : 2 channels
Channel positions : Front: L R
Sampling rate : 48.0 kHz
Frame rate : 31.250 FPS (1536 spf)
Compression mode : Lossy
Stream size : 158 MiB (3%)
Title : MVO
Language : Russian
Default : No
Forced : No

Audio #4
ID : 5
Format : AC-3
Format/Info : Audio Coding 3
Mode extension : CM (complete main)
Format settings, Endianness : Big
Codec ID : A_AC3
Duration : 1 h 54 min
Bit rate mode : Constant
Bit rate : 640 kb/s
Channel(s) : 6 channels
Channel positions : Front: L C R, Side: L R, LFE
Sampling rate : 48.0 kHz
Frame rate : 31.250 FPS (1536 spf)
Compression mode : Lossy
Stream size : 526 MiB (10%)
Title : Original
Language : English
Default : No
Forced : No

Text #1
ID : 6
Format : UTF-8
Codec ID : S_TEXT/UTF8
Codec ID/Info : UTF-8 Plain Text
Title : Forced
Language : Russian
Default : Yes
Forced : No

Text #2
ID : 7
Format : UTF-8
Codec ID : S_TEXT/UTF8
Codec ID/Info : UTF-8 Plain Text
Title : full
Language : Russian
Default : No
Forced : No

Text #3
ID : 8
Format : UTF-8
Codec ID : S_TEXT/UTF8
Codec ID/Info : UTF-8 Plain Text
Title : Forced
Language : Ukrainian
Default : No
Forced : No

Text #4
ID : 9
Format : UTF-8
Codec ID : S_TEXT/UTF8
Codec ID/Info : UTF-8 Plain Text
Title : Full
Language : Ukrainian
Default : No
Forced : No

Text #5
ID : 10
Format : UTF-8
Codec ID : S_TEXT/UTF8
Codec ID/Info : UTF-8 Plain Text
Title : Full
Language : English
Default : No
Forced : No

Text #6
ID : 11
Format : UTF-8
Codec ID : S_TEXT/UTF8
Codec ID/Info : UTF-8 Plain Text
Title : SDH
Language : English
Default : No
Forced : No

Menu
00:00:00.000 : en:Chapter 01
00:07:58.686 : en:Chapter 02
00:15:33.098 : en:Chapter 03
00:20:09.583 : en:Chapter 04
00:27:17.135 : en:Chapter 05
00:34:29.650 : en:Chapter 06
00:46:10.267 : en:Chapter 07
00:50:32.028 : en:Chapter 08
00:59:01.204 : en:Chapter 09
01:03:12.914 : en:Chapter 10
01:10:51.413 : en:Chapter 11
01:14:35.929 : en:Chapter 12
01:25:31.209 : en:Chapter 13
01:28:49.574 : en:Chapter 14
01:34:29.246 : en:Chapter 15
01:43:31.830 : en:Chapter 16


Релиз от:

Автор релиза: pb.wtf



Скачать Люди в черном: Интернэшнл через торрент https://d.radikal.ru/d23/1907/74/181562c23859.jpg Скачать, смотреть онлайн Люди в черном: Интернэшнл бесплантно в хорошем качестве О фильме: Люди в черном, тайная организация на страже покоя и безопасности Земли, уже не раз защищали нас от нападения отбросов Вселенной. ... 9.9 10 15
Info! Золотая раздача, скачанное не засчитывается.
Торрент: Зарегистрирован [2019-10-01 11:58] · скачан: 816 раз
Статус: √ проверено
Размер: 4.98 GB
Как cкачать? Как скачать Люди в черном: Интернэшнл через торрент | UTorrent

% Раздел Тема Автор DL S | L
T Фильмы 2019-2020 [DVDrip, WEB-DLRip, HDrip] (DUB, MVO) [ 1.45 GB ] Люди в черном: Интернэшнл / Men in Black International [2019 WEB-DLRip] MVO [HDRezka Studio] - ExKinoRay Enigma2010 Скачать
3 | 0
T Фильмы (WEB-DL 720p, 1080p) [ 4.48 GB ] Люди в черном: Интернэшнл / Men in Black International [2019 WEB-DL 1080p] MVO [HDRezka Studio] - ExKinoRay Enigma2010 Скачать
1 | 0

28-11-2019 20:33  

Отключить всю рекламу на сайте

28-10-2019 16:32 Люди в черном: Интернэшнл Скачать торрент  

народ как фильм???????????????????pb.wtf



    Дорогой пользователь! Огромная просьба, поблагодарите релизера, оцените раздачу и оставьте свои комментарий, если Вы скачали Люди в черном: Интернэшнл через торрент бесплатно!
    Комментировать посты могут только пользователи прошедшие не сложную регистрацию
    Показать сообщения:    

    Люди в черном: Интернэшнл через торрент
    Скачать бесплатно Люди в черном: Интернэшнл
    Люди в черном: Интернэшнл скачать торрент
    Люди в черном: Интернэшнл смотреть онлайн
    Cкачать фильм Люди в черном: Интернэшнл бесплатно
    Люди в черном: Интернэшнл скачать торрент в хорошем качестве
    Люди в черном: Интернэшнл смотреть онлайн бесплатно в хорошем качестве


    Вы не можете начинать темы
    Вы не можете отвечать на сообщения
    Вы не можете редактировать свои сообщения
    Вы не можете удалять свои сообщения
    Вы не можете голосовать в опросах
    Вы не можете прикреплять файлы к сообщениям
    Вы можете скачивать файлы