новый адрес
Ссылка на приватное зеркало всего за 1$. Внимание количество ограничено!!!

iTunes

1+1

iTunes

мы

WEB-DL

1

iTunes

Чернобыль

iTunes

Ральф против интернета

Лицензия

ПШазам

Лицензия

Оно 2

Лицензия

30
pack

Вам бонус

ВАЖНО

!!Акция!!

Alien_RageХит недели

RePack

Resident Evil 21

ИГРА 18+

pack

RePack

jed

!!Акция!!

Alien_Rage

RePack

fifa19

RePack

Assassins Creed: Odyssey

RePack

NEED FOR SPEED™ PAYBACK

3 сезон

9 сезон

Бесстыжие 9 сезон

Все сериалы

все сериалы на PB.wtf

RePack

FAR CRY 5
Ребята, катастрофически не хватает 1900р. для оплаты серверов за Октябрь (всвязи с блокировками трафик упал в 3 раза), 1-2р., выручайте.
  

#Dетки / Сезон: 1 / Серии: 1-10 из 10 (Вазген Каграманян) [2019, Драма, детектив, WEB-DL 1080p] pb.wtf

#Dетки через торрент pb.wtf

Раздают: 9 [ 30 KB/s ] Качают: 6 [ 545 KB/s ]
Размер: 11.5 GB | Добавлен: 7 д. назад | Торрент скачан:14 раз
Скачать  

01-10-2019 14:13 #Dетки Скачать торрент  

#Dетки
Год выпуска: 2019
Страна: Россия
Жанр: Драма, детектив
Продолжительность: ~ 00:32:00
Субтитры: отсутствуют

Режиссер: Вазген Каграманян



В ролях: Катерина Шпица, Валерия Репина, Михаил Химичев, Фёдор Бавтриков, Константин Юшкевич, Максим Лагашкин, Евгений Токарев, Севастьян Смышников, Глеб Калюжный, Грант Каграманян

Описание: У Лины все замечательно: модный блог о психологии подростков, обложки журналов и вообще аура успеха. У Киры все ровно: школа бесит, но это пройдет, а пока можно жить в сети и там же подрабатывать взломом чужих аккаунтов. Норма превратится в хаос, когда они столкнутся с маньяком, действующим исключительно онлайн. Кире и Лине придется попытаться действовать вместе и не убить друг друга, чтобы выйти на того, кто убивает подростков.

Качество: WEB-DL 1080p
Формат: MKV

Видео: 1920х800 (16:9), 25 fps, AVC MPEG-4 (x264), High@L4.1 ~ 5900 kbps avg, 0.094 bit/pixel
Аудио: 48 kHz, AC3, 2 ch, 192 kbps avg
скриншот  скриншот  скриншот  скриншот  

Общее
Уникальный идентификатор : 194825051065194801257214713201794119004 (0x9291F0A249CEBB8BB3FB218D418A755C)
Полное имя : G:Detki.2019.WEB-DL.(1080p).ExKinoRayDetKi.(01.seriya).2019.WEB-DL.(1080p).ExKinoRay.mkv
Формат : Matroska
Версия формата : Version 4 / Version 2
Размер файла : 1,41 Гбайт
Продолжительность : 32 м. 40 с.
Общий поток : 6195 Кбит/сек
Дата кодирования : UTC 2019-10-01 10:44:20
Программа кодирования : mkvmerge v6.9.1 ('Blue Panther') 64bit built on Apr 18 2014 18:23:38
Библиотека кодирования : libebml v1.3.0 + libmatroska v1.4.1

Видео
Идентификатор : 1
Формат : AVC
Формат/Информация : Advanced Video Codec
Профиль формата : High@L4.1
Настройки формата : CABAC / 4 Ref Frames
Параметр CABAC формата : Да
Параметр RefFrames формата : 4 кадра
Идентификатор кодека : V_MPEG4/ISO/AVC
Продолжительность : 32 м. 40 с.
Битрейт : 5880 Кбит/сек
Ширина : 1920 пикселей
Высота : 800 пикселей
Соотношение сторон : 2,40:1
Режим частоты кадров : Постоянный
Частота кадров : 25,000 кадров/сек
Цветовое пространство : YUV
Субдискретизация насыщенности : 4:2:0
Битовая глубина : 8 бит
Тип развёртки : Прогрессивная
Бит/(Пиксели*Кадры) : 0.153
Размер потока : 1,34 Гбайт (95%)
Default : Нет
Forced : Нет
Цветовой диапазон : Limited
Основные цвета : BT.709
Характеристики трансфера : BT.709
Коэффициенты матрицы : BT.709

Аудио
Идентификатор : 2
Формат : AC-3
Формат/Информация : Audio Coding 3
Идентификатор кодека : A_AC3
Продолжительность : 32 м. 40 с.
Вид битрейта : Постоянный
Битрейт : 192 Кбит/сек
Каналы : 2 канала
Расположение каналов : Front: L R
Частота : 48,0 КГц
Частота кадров : 31,250 кадров/сек (1536 SPF)
Битовая глубина : 16 бит
Метод сжатия : С потерями
Размер потока : 44,9 Мбайт (3%)
Язык : Russian
Default : Да
Forced : Нет

При каждом добавлении создаётся новый торрент. Чтобы начать докачку новой серии, пользователям необходимо сделать следующее:
- остановить скачивание;
- удалить старый торрент у себя из клиента (старые серии удалять не надо);
- скачать новый торрент и запустить его у себя в клиенте вместо старого, при этом указать клиенту путь в старую папку, куда и должно происходить скачивание новых серий.
pb.wtf



Скачать #Dетки через торрент https://img16.lostpic.net/2019/10/01/6cde6ec9c6106a093af36a0ce20de8e1.th.jpg Скачать фильм #Dетки через торрент бесплантно в хорошем качестве Описание: У Лины все замечательно: модный блог о психологии подростков, обложки журналов и вообще аура успеха. У Киры все ровно: школа ... 9.4 10 5
Торрент: Зарегистрирован [2019-12-02 20:01] · скачан: 14 раз
Статус: √ проверено
Размер: 11.5 GB
Как cкачать? Как скачать #Dетки через торрент | qTorrent

% Раздел Тема Автор DL S | L
Наши сериалы [ 3.53 GB ] #Dетки / Сезон: 1 / Серии: 1-10 из 10 [2019 WEB-DLRip] bober100 Скачать
5 | 0
Наши сериалы [ 5 GB ] #Dетки / Сезон: 1 / Серии: 1-10 из 10 [2019 WEB-DLRip-AVC] bober100 Скачать
4 | 0
Наши сериалы [ 6.85 GB ] #Dетки / Сезон: 1 / Серии: 1-10 из 10 [2019 WEB-DL 720p] bober100 Скачать
2 | 0

28-11-2019 20:33  

Отключить всю рекламу на сайте

    Дорогой пользователь! Огромная просьба, поблагодарите релизера, оцените раздачу и оставьте свои комментарий, если Вы скачали #Dетки через торрент бесплатно! Внесите свою лепту в развитие PiratBit!
    Комментировать посты могут только пользователи прошедшие не сложную регистрацию
    Показать сообщения:    

    #Dетки через торрент
    Скачать бесплатно #Dетки
    #Dетки скачать торрент
    #Dетки смотреть онлайн
    Cкачать фильм #Dетки бесплатно
    #Dетки скачать торрент в хорошем качестве
    #Dетки смотреть онлайн бесплатно в хорошем качестве


    Вы не можете начинать темы
    Вы не можете отвечать на сообщения
    Вы не можете редактировать свои сообщения
    Вы не можете удалять свои сообщения
    Вы не можете голосовать в опросах
    Вы не можете прикреплять файлы к сообщениям
    Вы можете скачивать файлы