новый адрес
Ссылка на приватное зеркало всего за 1$. Внимание количество ограничено!!!

iTunes

1+1

iTunes

мы

WEB-DL

1

iTunes

Чернобыль

iTunes

Ральф против интернета

Лицензия

ПШазам

Лицензия

Оно 2

Лицензия

30
pack

Вам бонус

ВАЖНО

!!Акция!!

Alien_RageХит недели

RePack

Resident Evil 21

ИГРА 18+

pack

RePack

jed

!!Акция!!

Alien_Rage

RePack

fifa19

RePack

Assassins Creed: Odyssey

RePack

NEED FOR SPEED™ PAYBACK

3 сезон

9 сезон

Бесстыжие 9 сезон

Все сериалы

все сериалы на PB.wtf

RePack

FAR CRY 5
Ребята, катастрофически не хватает 1900р. для оплаты серверов за Октябрь (всвязи с блокировками трафик упал в 3 раза), 1-2р., выручайте.
  

#Dетки / Сезон: 1 / Серии: 1-10 из 10 (Вазген Каграманян) [2019, Драма, детектив, WEB-DLRip] pb.wtf

#Dетки через торрент pb.wtf

Раздают: 2 [ 2 KB/s ]
Размер: 3.53 GB | Добавлен: 7 д. назад | Торрент скачан:37 раз
Скачать  

01-10-2019 14:22 #Dетки Скачать торрент  

#Dетки
Год выпуска: 2019
Страна: Россия
Жанр: Драма, детектив
Продолжительность: ~ 00:32:00
Субтитры: отсутствуют

Режиссер: Вазген Каграманян



В ролях: Катерина Шпица, Валерия Репина, Михаил Химичев, Фёдор Бавтриков, Константин Юшкевич, Максим Лагашкин, Евгений Токарев, Севастьян Смышников, Глеб Калюжный, Грант Каграманян

Описание: У Лины все замечательно: модный блог о психологии подростков, обложки журналов и вообще аура успеха. У Киры все ровно: школа бесит, но это пройдет, а пока можно жить в сети и там же подрабатывать взломом чужих аккаунтов. Норма превратится в хаос, когда они столкнутся с маньяком, действующим исключительно онлайн. Кире и Лине придется попытаться действовать вместе и не убить друг друга, чтобы выйти на того, кто убивает подростков.

Качество: WEB-DLRip
Формат: AVI

Видео: 720x304 (2.37:1), 25 fps, XviD ~1700 kbps avg, 0.311 bit/pixel
Аудио: 48.0 kHz, AC3 Dolby Digital, 2/0 (L,R) ch, ~ 192 kbps
скриншот   скриншот   скриншот   скриншот   скриншот   скриншот   скриншот  
скриншот  

General
Complete name : D:\DetKi.2019.WEB-DLRip.ExKinoRay\DetKi.(01.seriya).2019.WEB-DLRip.ExKinoRay.avi
Format : AVI
Format/Info : Audio Video Interleave
File size : 444 MiB
Duration : 32 min 40 s
Overall bit rate : 1 901 kb/s
Writing application : VirtualDubMod 1.5.10.3 | www.virtualdub-fr.org || (build 2550/release)
Writing library : VirtualDubMod build 2550/release

Video
ID : 0
Format : MPEG-4 Visual
Format profile : Advanced Simple@L5
Format settings : BVOP1 / Custom Matrix
Format settings, BVOP : 1
Format settings, QPel : No
Format settings, GMC : No warppoints
Format settings, Matrix : Custom
Codec ID : XVID
Codec ID/Hint : XviD
Duration : 32 min 40 s
Bit rate : 1 700 kb/s
Width : 720 pixels
Height : 304 pixels
Display aspect ratio : 2.35:1
Frame rate : 25.000 FPS
Color space : YUV
Chroma subsampling : 4:2:0
Bit depth : 8 bits
Scan type : Progressive
Compression mode : Lossy
Bits/(Pixel*Frame) : 0.311
Stream size : 397 MiB (89%)
Writing library : XviD 73

Audio
ID : 1
Format : AC-3
Format/Info : Audio Coding 3
Codec ID : 2000
Duration : 32 min 40 s
Bit rate mode : Constant
Bit rate : 192 kb/s
Channel(s) : 2 channels
Channel positions : Front: L R
Sampling rate : 48.0 kHz
Frame rate : 31.250 FPS (1536 SPF)
Bit depth : 16 bits
Compression mode : Lossy
Stream size : 44.9 MiB (10%)
Alignment : Split accross interleaves
Interleave, duration : 40 ms (1.00 video frame)
Interleave, preload duratio : 500 ms
Service kind : Complete Main

При каждом добавлении создаётся новый торрент. Чтобы начать докачку новой серии, пользователям необходимо сделать следующее:
- остановить скачивание;
- удалить старый торрент у себя из клиента (старые серии удалять не надо);
- скачать новый торрент и запустить его у себя в клиенте вместо старого, при этом указать клиенту путь в старую папку, куда и должно происходить скачивание новых серий.
pb.wtf



Скачать #Dетки через торрент https://i90.fastpic.ru/big/2019/1001/0d/5290e570c9c3d955d2e4cc3e9e5d8f0d.jpg Скачать фильм #Dетки через торрент бесплантно в хорошем качестве Описание: У Лины все замечательно: модный блог о психологии подростков, обложки журналов и вообще аура успеха. У Киры все ровно: школа ... 9.2 10 11
Торрент: Зарегистрирован [2019-12-03 02:41] · скачан: 37 раз
Статус: √ проверено
Размер: 3.53 GB
Как cкачать? Как скачать #Dетки через торрент | qTorrent

% Раздел Тема Автор DL S | L
Наши сериалы [ 5 GB ] #Dетки / Сезон: 1 / Серии: 1-10 из 10 [2019 WEB-DLRip-AVC] bober100 Скачать
4 | 0
Наши сериалы [ 11.5 GB ] #Dетки / Сезон: 1 / Серии: 1-10 из 10 [2019 WEB-DL 1080p] bober100 Скачать
9 | 5
Наши сериалы [ 6.85 GB ] #Dетки / Сезон: 1 / Серии: 1-10 из 10 [2019 WEB-DL 720p] bober100 Скачать
2 | 0

28-11-2019 20:33  

Отключить всю рекламу на сайте

03-12-2019 04:39 #Dетки Скачать торрент  

кусок гомнаpb.wtf



    Дорогой пользователь! Огромная просьба, поблагодарите релизера, оцените раздачу и оставьте свои комментарий, если Вы скачали #Dетки через торрент бесплатно! Внесите свою лепту в развитие PiratBit!
    Комментировать посты могут только пользователи прошедшие не сложную регистрацию
    Показать сообщения:    

    #Dетки через торрент
    Скачать бесплатно #Dетки
    #Dетки скачать торрент
    #Dетки смотреть онлайн
    Cкачать фильм #Dетки бесплатно
    #Dетки скачать торрент в хорошем качестве
    #Dетки смотреть онлайн бесплатно в хорошем качестве


    Вы не можете начинать темы
    Вы не можете отвечать на сообщения
    Вы не можете редактировать свои сообщения
    Вы не можете удалять свои сообщения
    Вы не можете голосовать в опросах
    Вы не можете прикреплять файлы к сообщениям
    Вы можете скачивать файлы