Ссылка на приватное зеркало всего за 1$. Внимание количество ограничено!!!

iTunes

1+1

iTunes

мы

WEB-DL

1

iTunes

Чернобыль

iTunes

Ральф против интернета

Лицензия

ПШазам

Лицензия

Оно 2

Лицензия

30
pack

Вам бонус

ВАЖНО

!!Акция!!

Alien_RageХит недели

RePack

Resident Evil 21

ИГРА 18+

pack

RePack

jed

!!Акция!!

Alien_Rage

RePack

fifa19

RePack

Assassins Creed: Odyssey

RePack

NEED FOR SPEED™ PAYBACK

3 сезон

9 сезон

Бесстыжие 9 сезон

Все сериалы

все сериалы на PB.wtf

RePack

FAR CRY 5
Ребята, катастрофически не хватает 1900р. для оплаты серверов за Октябрь (всвязи с блокировками трафик упал в 3 раза), 1-2р., выручайте.
  

Безбашенная пуля / Hollow Point (Дэниэл Дзирилли) [2019 г., боевик, WEB-DLRip, Дубляж "iTunes"] pb.wtf

Безбашенная пуля через торрент pb.wtf

Раздают: 1 [ 0 KB/s ]
Размер: 704 MB | Добавлен: 2 мес. 11 д. назад | Торрент скачан:64 раза
Скачать  

01-10-2019 18:26 Безбашенная пуля Скачать торрент  

Безбашенная пуля / Hollow Point
Год выпуска: 2019
Страна: США / Halcyon Films
Жанр: боевик
Продолжительность: 01:29:44
Перевод: Дубляж (iTunes)

Режиссер: Дэниэл Дзирилли

rating

В ролях: Люк Госс, Дилан Джей, Жужу Чан, Джей Мор, Билл Дьюк, Майкл Паре, Роджер Гуэнвёр Смит, Наталия Берн, Гари Кейрнс II, Энтони Халл

Описание: Хэнк Кормак - адвокат и мститель, который возглавляет команду борцов с преступностью, ведущих войну против преступников, заражающих их город. Когда жена и дочь профессора колледжа Нолана Куорая гибнут в перекрестном огне бандитской разборки и системе не удается добиться справедливости, Нолан присоединяется к Хэнку и его команде в поисках справедливой мести.

Качество: WEB-DLRip
Формат: AVI
Видео кодек: DivX
Аудио кодек: MP3
Видео: 640x336 (1.90:1), 23.976 fps, DivX Codec 4.x ~959 kbps avg, 0.19 bit/pixel
Аудио: 48 kHz, MPEG Layer 3, 2 ch, ~128.00 kbps avg
скриншот   скриншот   скриншот   скриншот   скриншот   скриншот   скриншот   скриншот  

Общее
Полное имя : F:\ФИЛЬМЫ\Безбашенная пуля.2019.D.WEB-DLRip.avi
Формат : AVI
Формат/Информация : Audio Video Interleave
Размер файла : 704 Мбайт
Продолжительность : 1 ч. 29 м.
Общий поток : 1097 Кбит/сек
Программа кодирования : VirtualDubMod 1.5.10.3 | www.virtualdub-fr.org || (build 2550/release)
Библиотека кодирования : VirtualDubMod build 2550/release

Видео
Идентификатор : 0
Формат : MPEG-4 Visual
Профиль формата : Advanced Simple@L5
Настройки формата : BVOP3 / GMC3 / QPel
Параметр BVOP формата : 3
Параметр QPel формата : Да
Параметр GMC формата : 3 точки перехода
Параметр матрицы формата : Default (MPEG)
Идентификатор кодека : DIVX
Идентификатор кодека/Информация : Project Mayo
Идентификатор кодека/Подсказка : DivX 4
Продолжительность : 1 ч. 29 м.
Битрейт : 959 Кбит/сек
Ширина : 640 пикселей
Высота : 336 пикселей
Соотношение сторон : 1,905
Частота кадров : 23,976 (24000/1001) кадра/сек
Цветовое пространство : YUV
Субдискретизация насыщенности : 4:2:0
Битовая глубина : 8 бит
Тип развёртки : Прогрессивная
Метод сжатия : С потерями
Бит/(Пиксели*Кадры) : 0.186
Размер потока : 616 Мбайт (87%)
Библиотека кодирования : XviD 1.2.1 (UTC 2008-12-04)

Аудио
Идентификатор : 1
Формат : MPEG Audio
Версия формата : Version 1
Профиль формата : Layer 3
Настройки формата : Joint stereo / MS Stereo
Идентификатор кодека : 55
Идентификатор кодека/Подсказка : MP3
Продолжительность : 1 ч. 29 м.
Вид битрейта : Постоянный
Битрейт : 128 Кбит/сек
Каналы : 2 канала
Частота : 48,0 КГц
Частота кадров : 41,667 кадра/сек (1152 SPF)
Метод сжатия : С потерями
Размер потока : 82,1 Мбайт (12%)
Выравнивание : Соединение по промежуткам
Продолжительность промежутка : 42 мс. (1,00 видеокадр)
Время предзагрузки промежутка : 504 мс.
Библиотека кодирования : LAME3.99r
Настройки программы : -m j -V 4 -q 2 -lowpass 17 -b 128

pb.wtf



Скачать Безбашенная пуля через торрент http://pic1.kartinco.top/images/12/4emes.jpg Скачать фильм Безбашенная пуля через торрент бесплантно в хорошем качестве Описание: Хэнк Кормак - адвокат и мститель, который возглавляет команду борцов с преступностью, ведущих войну против преступников, ... 8.3 10 4
Торрент: Зарегистрирован [2019-10-01 18:26] · скачан: 64 раз
Статус: √ проверено
Размер: 704 MB
Как cкачать? Как скачать Безбашенная пуля через торрент | qTorrent

% Раздел Тема Автор DL S | L
Фильмы (WEB-DL 720p, 1080p) [ 2.66 GB ] Пустая пуля / Безбашенная пуля / Hollow Point [2019 WEB-DL 720p] bober100 Скачать
3 | 0
Фильмы (WEB-DL 720p, 1080p) [ 3.33 GB ] Пустая пуля / Безбашенная пуля / Hollow Point [2019 WEB-DL 1080p] bober100 Скачать
5 | 0
T Фильмы (мультфильмы) cо спонсором показа (Новинки AVI/MKV) [ 3.43 GB ] Пустая пуля / Безбашенная пуля / Hollow Point [2019 WEB-DL 720p] DUB [Line] bober100 Скачать
1 | 0
Фильмы 2019 [DVDrip, WEB-DLRip, HDrip] (DUB, MVO) [ 1.37 GB ] Пустая пуля / Безбашенная пуля / Hollow Point [2019 WEB-DLRip] bober100 Скачать
5 | 0

28-11-2019 20:33  

Отключить всю рекламу на сайте

    Дорогой пользователь! Огромная просьба, поблагодарите релизера, оцените раздачу и оставьте свои комментарий, если Вы скачали Безбашенная пуля через торрент бесплатно! Внесите свою лепту в развитие PiratBit!
    Комментировать посты могут только пользователи прошедшие не сложную регистрацию
    Показать сообщения:    

    Безбашенная пуля через торрент
    Скачать бесплатно Безбашенная пуля
    Безбашенная пуля скачать торрент
    Безбашенная пуля смотреть онлайн
    Cкачать фильм Безбашенная пуля бесплатно
    Безбашенная пуля скачать торрент в хорошем качестве
    Безбашенная пуля смотреть онлайн бесплатно в хорошем качестве


    Вы не можете начинать темы
    Вы не можете отвечать на сообщения
    Вы не можете редактировать свои сообщения
    Вы не можете удалять свои сообщения
    Вы не можете голосовать в опросах
    Вы не можете прикреплять файлы к сообщениям
    Вы можете скачивать файлы