новый адрес
Ссылка на приватное зеркало всего за 1$. Внимание количество ограничено!!!

iTunes

1+1

iTunes

мы

WEB-DL

1

iTunes

Чернобыль

iTunes

Ральф против интернета

Лицензия

ПШазам

Лицензия

Оно 2

Лицензия

30
pack

Вам бонус

ВАЖНО

!!Акция!!

Alien_RageХит недели

RePack

Resident Evil 21

ИГРА 18+

pack

RePack

jed

!!Акция!!

Alien_Rage

RePack

fifa19

RePack

Assassins Creed: Odyssey

RePack

NEED FOR SPEED™ PAYBACK

3 сезон

9 сезон

Бесстыжие 9 сезон

Все сериалы

все сериалы на PB.wtf

RePack

FAR CRY 5
Ребята, катастрофически не хватает 1900р. для оплаты серверов за Октябрь (всвязи с блокировками трафик упал в 3 раза), 1-2р., выручайте.
  

Человек на Кэррион-роуд / The Hollow Point (Гонсало Лопес-Гальего) [2016, триллер, криминал, боевик, BDRip 720p] AVO [М.Чадов] pb.wtf

Человек на Кэррион-роуд через торрент pb.wtf

Размер: 6.07 GB | Добавлен: 2 мес. 8 д. назад | Торрент скачан:2 раза
Скачать  

01-10-2019 18:46 Человек на Кэррион-роуд Скачать торрент  

Человек на Кэррион-роуд / The Hollow Point
Год выпуска: 2016
Страна: США
Жанр: триллер, криминал, боевик
Продолжительность: 01:37:10
Перевод: Авторский | Михаил Чадов
Субтитры: Русские, английские

Режиссер: Гонсало Лопес-Гальего

rating

В ролях:Линн Коллинз, Джон Легуизамо, Патрик Уилсон, Иэн МакШейн, Джеймс Белуши, Дэвид Стивенс, Нэйтан Стивенс, Майкл Флинн, Хезер Бирс, Дебора Ли Дуглас

Описание: Офицер Уоллис вернулся в свой родной город, чтобы стать шерифом. Только город этот находится на границе с Мексикой и активно снабжает мексиканские картели бронебойными патронами. Бывший друг Уоллиса, занимался контрабандой и решил выйти из дела. За это он попал в некий список и по его следу идет наемник по кличке "мясник". Все бы ничего, но в этот список попадает и бывшая девушка нашего героя...

Качество: BDRip 720p
Формат: MKV

Видео: MPEG-4 AVC, 1280x536, 5479 Kbit/s, 23.976 fps
Аудио#1: 48 kHz, DTS, 5.1, 1510 Kbps | Авторский |
Аудио#2: 48 kHz, AC3, 5.1, 448 Kbps | Авторский |
Аудио#3: 48 kHz, DTS, 5.1, 1510 kbps | Оригинал |
скриншот  скриншот  скриншот  скриншот  скриншот  

General
Unique ID : 245064107908455530493996309451512650849 (0xB85DA160078D84FCA1C7B5E3E99A9C61)
Complete name : G:VideoThe.Hollow.Point.2016.AVO.BDRip.720p.ExKinoRay.mkv
Format : Matroska
Format version : Version 4 / Version 2
File size : 6.07 GiB
Duration : 1 h 37 min
Overall bit rate : 8 948 kb/s
Encoded date : UTC 2017-02-11 22:31:42
Writing application : mkvmerge v8.3.0 ('Over the Horizon') 64bit
Writing library : libebml v1.3.1 + libmatroska v1.4.2

Video
ID : 1
Format : AVC
Format/Info : Advanced Video Codec
Format profile : High@L4.1
Format settings, CABAC : Yes
Format settings, ReFrames : 12 frames
Codec ID : V_MPEG4/ISO/AVC
Duration : 1 h 37 min
Bit rate : 5 479 kb/s
Width : 1 280 pixels
Height : 536 pixels
Display aspect ratio : 2.40:1
Frame rate mode : Constant
Frame rate : 23.976 (24000/1001) FPS
Color space : YUV
Chroma subsampling : 4:2:0
Bit depth : 8 bits
Scan type : Progressive
Bits/(Pixel*Frame) : 0.333
Stream size : 3.72 GiB (61%)
Writing library : x264 core 142 r2431+42 c69a006 tMod [8-bit@all X86_64]
Encoding settings : cabac=1 / ref=12 / deblock=1:-3:-3 / analyse=0x3:0x113 / me=umh / subme=11 / psy=1 / fade_compensate=0.00 / psy_rd=1.08:1.08 / mixed_ref=1 / me_range=48 / chroma_me=1 / trellis=2 / 8x8dct=1 / cqm=0 / deadzone=21,11 / fast_pskip=0 / chroma_qp_offset=-4 / threads=16 / lookahead_threads=2 / sliced_threads=0 / nr=0 / decimate=0 / interlaced=0 / bluray_compat=0 / constrained_intra=0 / fgo=0 / bframes=8 / b_pyramid=2 / b_adapt=2 / b_bias=0 / direct=3 / weightb=1 / open_gop=0 / weightp=2 / keyint=240 / keyint_min=23 / scenecut=40 / intra_refresh=0 / rc_lookahead=150 / rc=crf / mbtree=0 / crf=17.0000 / qcomp=0.70 / qpmin=0:0:0 / qpmax=69:69:69 / qpstep=4 / vbv_maxrate=62500 / vbv_bufsize=78125 / crf_max=0.0 / nal_hrd=none / filler=0 / ip_ratio=1.30 / pb_ratio=1.20 / aq=2:0.80 / aq-sensitivity=10.00 / aq-factor=1.00:1.00:1.00 / aq2=0 / aq3=0
Language : English
Default : Yes
Forced : No
Color range : Limited
Color primaries : BT.709
Transfer characteristics : BT.709
Matrix coefficients : BT.709

Audio #1
ID : 2
Format : DTS
Format/Info : Digital Theater Systems
Mode : 16
Format settings, Endianness : Big
Codec ID : A_DTS
Duration : 1 h 37 min
Bit rate mode : Constant
Bit rate : 1 509 kb/s
Channel(s) : 6 channels
Channel positions : Front: L C R, Side: L R, LFE
Sampling rate : 48.0 kHz
Frame rate : 93.750 FPS (512 spf)
Bit depth : 16 bits
Compression mode : Lossy
Stream size : 1.02 GiB (17%)
Title : AVO-DTS [М.Чадов по переводу Perevodman]
Language : Russian
Default : Yes
Forced : No

Audio #2
ID : 3
Format : AC-3
Format/Info : Audio Coding 3
Mode extension : CM (complete main)
Format settings, Endianness : Big
Codec ID : A_AC3
Duration : 1 h 37 min
Bit rate mode : Constant
Bit rate : 448 kb/s
Channel(s) : 6 channels
Channel positions : Front: L C R, Side: L R, LFE
Sampling rate : 48.0 kHz
Frame rate : 31.250 FPS (1536 spf)
Bit depth : 16 bits
Compression mode : Lossy
Stream size : 311 MiB (5%)
Title : AVO-AC3 [М.Чадов по переводу Perevodman]
Language : Russian
Default : No
Forced : No

Audio #3
ID : 4
Format : DTS
Format/Info : Digital Theater Systems
Mode : 16
Format settings, Endianness : Big
Codec ID : A_DTS
Duration : 1 h 37 min
Bit rate mode : Constant
Bit rate : 1 509 kb/s
Channel(s) : 6 channels
Channel positions : Front: L C R, Side: L R, LFE
Sampling rate : 48.0 kHz
Frame rate : 93.750 FPS (512 spf)
Bit depth : 16 bits
Compression mode : Lossy
Stream size : 1.02 GiB (17%)
Title : Original
Language : English
Default : No
Forced : No

Text #1
ID : 5
Format : UTF-8
Codec ID : S_TEXT/UTF8
Codec ID/Info : UTF-8 Plain Text
Duration : 1 h 33 min
Bit rate : 62 b/s
Count of elements : 1003
Stream size : 42.7 KiB (0%)
Title : Full [Перевод от Perevodman]
Language : Russian
Default : No
Forced : No

Text #2
ID : 6
Format : UTF-8
Codec ID : S_TEXT/UTF8
Codec ID/Info : UTF-8 Plain Text
Duration : 1 h 33 min
Bit rate : 42 b/s
Count of elements : 1085
Stream size : 28.7 KiB (0%)
Title : Full
Language : English
Default : No
Forced : No

Menu
00:00:00.000 : en:00:00:00.000
00:14:30.036 : en:00:14:30.036
00:34:53.925 : en:00:34:53.925
00:55:06.929 : en:00:55:06.929
01:12:05.279 : en:01:12:05.279
01:28:29.888 : en:01:28:29.888

pb.wtf



Скачать Человек на Кэррион-роуд через торрент http://s019.radikal.ru/i617/1702/12/a4585d4bcd7d.jpg Скачать фильм Человек на Кэррион-роуд через торрент бесплантно в хорошем качестве Описание: Офицер Уоллис вернулся в свой родной город, чтобы стать шерифом. Только город этот находится на границе с Мексикой и активно ... 10 10 2
Торрент: Зарегистрирован [2019-10-01 18:46] · скачан: 2 раз
Статус: √ проверено
Размер: 6.07 GB
Как cкачать? Как скачать Человек на Кэррион-роуд через торрент | qTorrent

% Раздел Тема Автор DL S | L
Фильмы с авторской озвучкой [ 11.85 GB ] Человек на Кэррион-роуд / The Hollow Point [2016 BDRip 1080p] AVO [М.Чадов] bober100 Скачать
1 | 0
Фильмы (Blu-ray, BD-Remux, HDDVD) [ 19.14 GB ] Человек на Кэррион-роуд / The Hollow Point [2016 BDRemux 1080p] от ExKinoRay / AVO Russian Mafia Скачать
1 | 0
Фильмы с авторской озвучкой [ 1.46 GB ] Человек на Кэррион-роуд / The Hollow Point [2016 BDRip] Авторский [Михаил Чадов] Twi7ter Скачать
1 | 0
T Фильмы [HD 720p, 1080p] (Звук Cam, VO, DVO) [ 7.42 GB ] Человек на Кэррион-роуд / The Hollow Point [2016 BDRip 1080p] Любительский одноголосый [BadBajo] -Lexx- Скачать
1 | 0
T Фильмы 2016 (Звук TS, Cam, VO, DVO) [ 1.36 GB ] Человек на Кэррион-роуд / The Hollow Point [2016 WEB-DLRip] VO [BadBajo] bober100 Скачать
1 | 0

28-11-2019 20:33  

Отключить всю рекламу на сайте

    Дорогой пользователь! Огромная просьба, поблагодарите релизера, оцените раздачу и оставьте свои комментарий, если Вы скачали Человек на Кэррион-роуд через торрент бесплатно! Внесите свою лепту в развитие PiratBit!
    Комментировать посты могут только пользователи прошедшие не сложную регистрацию
    Показать сообщения:    

    Человек на Кэррион-роуд через торрент
    Скачать бесплатно Человек на Кэррион-роуд
    Человек на Кэррион-роуд скачать торрент
    Человек на Кэррион-роуд смотреть онлайн
    Cкачать фильм Человек на Кэррион-роуд бесплатно
    Человек на Кэррион-роуд скачать торрент в хорошем качестве
    Человек на Кэррион-роуд смотреть онлайн бесплатно в хорошем качестве


    Вы не можете начинать темы
    Вы не можете отвечать на сообщения
    Вы не можете редактировать свои сообщения
    Вы не можете удалять свои сообщения
    Вы не можете голосовать в опросах
    Вы не можете прикреплять файлы к сообщениям
    Вы можете скачивать файлы