Ссылка на приватное зеркало всего за 1$. Внимание количество ограничено!!!

OK

1+1

iTunes

мы

OK

1

WEB-DLRip

Джокер

Пифагор

Ведьмак / The Witcher сериал

Лицензия

ПШазам

ОК

Оно 2

iTunes

30
pack

Вам бонус

ВАЖНО

!!Акция!!

Alien_RageХит недели

RePack

Resident Evil 21

ИГРА 18+

pack

RePack

jed

!!Акция!!

Alien_Rage

RePack

fifa19

RePack

Assassins Creed: Odyssey

RePack

NEED FOR SPEED™ PAYBACK

4 сезон

9 сезон

Бесстыжие 9 сезон

Все сериалы

все сериалы на PB.wtf

RePack

FAR CRY 5
  

Солнцестояние / Midsommar (Ари Астер) [2019, Ужасы, триллер, драма, BDRip 720p] DUB [iTunes] pb.wtf

Солнцестояние через торрент pb.wtf

Раздают: 4 [ 44 KB/s ]
Размер: 9.27 GB | Добавлен: 3 мес. 17 д. назад | Торрент скачан:228 раз
Скачать  

02-10-2019 04:54 Солнцестояние Скачать торрент  

Солнцестояние / Midsommar
Год выпуска: 2019
Страна: США, Швеция, Венгрия
Жанр: Ужасы, триллер, драма
Продолжительность: 02:27:05
Перевод: Дублированный | iTunes
Субтитры: Русские (Full), английские

Режиссер: Ари Астер

rating

В ролях: Флоренс Пью, Джек Рейнор, Вильхельм Бломгрен, Уильям Джексон Харпер, Уилл Поултер, Эллора Торчия, Арчи Мадекве, Хенрик Норлен, Гуннель Фред, Изабель Грилл, Агнес Вестерлунд Разе, Юлия Рагнарссон, Ларс Ворингер, Анна Острём, Хампус Халльберг, Лив Мяёнес, Луиз Петерхофф, Кати Домби, Матс Бломгрен, Михай Касаш, Остин Р. Грант, Габриелла Фон

Описание: День летнего солнцестояния - древний праздник, который во всех культурах окутан мистическим ореолом. В отрезанном от цивилизованного мира шведском поселении раз в 90 лет в этот день проводится уникальный обряд. Именно туда отправляется группа молодых американских антропологов. Однако вскоре после прибытия там начинает происходить нечто необъяснимое, и под светом солнца исследователям открывается настоящая тьма.

Качество: BDRip 720p
Формат: MKV

Видео: MPEG-4 AVC, 1280x640, 8000 Kbit/s, 23.976 fps
Аудио#1: 48 kHz, AC3, 5.1, 384 Kbps | iTunes | RUS |
Аудио#2: 48 kHz, AC3, 5.1, 640 Kbps | Оригинал | ENG |
скриншот  скриншот  скриншот  скриншот  скриншот  

General
Unique ID : 246231078544058935975067241931328872874 (0xB93E617838935729300FD421C11A61AA)
Complete name : D:Video111Midsommar.2019.BDRip.720p.seleZen.mkv
Format : Matroska
Format version : Version 4
File size : 9.27 GiB
Duration : 2 h 27 min
Overall bit rate : 9 027 kb/s
Movie name : Midsommar 2019 from селезень
Encoded date : UTC 2019-10-02 02:01:17
Writing application : mkvmerge v22.0.0 ('At The End Of The World') 64-bit
Writing library : libebml v1.3.5 + libmatroska v1.4.8

Video
ID : 1
Format : AVC
Format/Info : Advanced Video Codec
Format profile : High@L4.1
Format settings : CABAC / 10 Ref Frames
Format settings, CABAC : Yes
Format settings, Reference : 10 frames
Codec ID : V_MPEG4/ISO/AVC
Duration : 2 h 27 min
Bit rate : 8 000 kb/s
Width : 1 280 pixels
Height : 640 pixels
Display aspect ratio : 2.000
Frame rate mode : Constant
Frame rate : 23.976 (24000/1001) FPS
Color space : YUV
Chroma subsampling : 4:2:0
Bit depth : 8 bits
Scan type : Progressive
Bits/(Pixel*Frame) : 0.407
Stream size : 8.22 GiB (89%)
Title : iFT
Writing library : x264 core 155 r2867+74 66b5600 t_mod_Custom_2 [8-bit@all X86_64]
Encoding settings : cabac=1 / ref=10 / deblock=1:-3:-3 / analyse=0x3:0x133 / me=umh / subme=11 / psy=1 / fade_compensate=0.00 / psy_rd=1.00:0.00 / mixed_ref=1 / me_range=32 / chroma_me=1 / trellis=2 / 8x8dct=1 / cqm=0 / deadzone=21,11 / fast_pskip=0 / chroma_qp_offset=-2 / threads=18 / lookahead_threads=3 / sliced_threads=0 / nr=0 / decimate=0 / interlaced=0 / bluray_compat=0 / constrained_intra=0 / fgo=0 / bframes=8 / b_pyramid=2 / b_adapt=2 / b_bias=0 / direct=3 / weightb=1 / open_gop=0 / weightp=2 / keyint=250 / keyint_min=23 / scenecut=40 / intra_refresh=0 / rc=2pass / mbtree=0 / bitrate=8000 / ratetol=1.0 / qcomp=0.60 / qpmin=0:0:0 / qpmax=69:69:69 / qpstep=4 / cplxblur=20.0 / qblur=0.5 / ip_ratio=1.30 / pb_ratio=1.20 / aq=3:0.80 / aq-sensitivity=10.00 / aq-factor=1.00:1.00:1.00 / aq2=0 / aq3=0
Language : English
Default : Yes
Forced : No
Color range : Limited
Matrix coefficients : BT.709

Audio #1
ID : 2
Format : AC-3
Format/Info : Audio Coding 3
Commercial name : Dolby Digital
Codec ID : A_AC3
Duration : 2 h 27 min
Bit rate mode : Constant
Bit rate : 384 kb/s
Channel(s) : 6 channels
Channel layout : L R C LFE Ls Rs
Sampling rate : 48.0 kHz
Frame rate : 31.250 FPS (1536 SPF)
Bit depth : 16 bits
Compression mode : Lossy
Stream size : 404 MiB (4%)
Title : iTunes
Language : Russian
Service kind : Complete Main
Default : Yes
Forced : Yes

Audio #2
ID : 3
Format : AC-3
Format/Info : Audio Coding 3
Commercial name : Dolby Digital
Codec ID : A_AC3
Duration : 2 h 27 min
Bit rate mode : Constant
Bit rate : 640 kb/s
Channel(s) : 6 channels
Channel layout : L R C LFE Ls Rs
Sampling rate : 48.0 kHz
Frame rate : 31.250 FPS (1536 SPF)
Bit depth : 16 bits
Compression mode : Lossy
Stream size : 673 MiB (7%)
Title : Original
Language : English
Service kind : Complete Main
Default : No
Forced : No

Text #1
ID : 4
Format : UTF-8
Codec ID : S_TEXT/UTF8
Codec ID/Info : UTF-8 Plain Text
Duration : 2 h 20 min
Bit rate : 59 b/s
Count of elements : 1343
Stream size : 61.7 KiB (0%)
Title : Full [FOCS]
Language : Russian
Default : No
Forced : No

Text #2
ID : 5
Format : UTF-8
Codec ID : S_TEXT/UTF8
Codec ID/Info : UTF-8 Plain Text
Duration : 2 h 11 min
Bit rate : 40 b/s
Count of elements : 1136
Stream size : 38.9 KiB (0%)
Title : Full
Language : English
Default : No
Forced : No

Text #3
ID : 6
Format : UTF-8
Codec ID : S_TEXT/UTF8
Codec ID/Info : UTF-8 Plain Text
Duration : 2 h 25 min
Bit rate : 44 b/s
Count of elements : 1444
Stream size : 47.4 KiB (0%)
Title : SDH
Language : English
Default : No
Forced : No

Menu
00:00:00.000 : :Chapter 1
00:12:34.796 : :Chapter 2
00:18:07.003 : :Chapter 3
00:25:15.222 : :Chapter 4
00:33:35.722 : :Chapter 5
00:40:57.038 : :Chapter 6
00:49:23.669 : :Chapter 7
00:57:14.765 : :Chapter 8
01:05:52.824 : :Chapter 9
01:12:59.083 : :Chapter 10
01:20:37.166 : :Chapter 11
01:33:58.716 : :Chapter 12
01:41:34.255 : :Chapter 13
01:53:50.449 : :Chapter 14
02:02:23.044 : :Chapter 15
02:14:07.039 : :Chapter 16

pb.wtf



Скачать Солнцестояние через торрент https://d.radikal.ru/d34/1910/a9/79313cd420f3.jpg Скачать фильм Солнцестояние через торрент бесплантно в хорошем качестве Описание: День летнего солнцестояния - древний праздник, который во всех культурах окутан мистическим ореолом. В отрезанном от ... 10 10 4
Торрент: Зарегистрирован [2019-10-02 04:54] · скачан: 228 раз
Статус: √ проверено
Размер: 9.27 GB
Как cкачать? Как скачать Солнцестояние через торрент | qTorrent

% Раздел Тема Автор DL S | L
Фильмы 2019-2020 [DVDrip, WEB-DLRip, HDrip] (DUB, MVO) [ 2.18 GB ] Солнцестояние / Midsommar [2019 BDRip] [Режиссерская версия] bober100 Скачать
5 | 0
Фильмы 2019-2020 [DVDrip, WEB-DLRip, HDrip] (DUB, MVO) [ 1.46 GB ] Солнцестояние / Midsommar [2019 BDRip] [Режиссерская версия] bober100 Скачать
13 | 0
Фильмы [HD 720p, 1080p] (Хороший звук DUB, MVO) [ 12.75 GB ] Солнцестояние / Midsommar [2019 BDRip 1080p] [Режиссерская версия] +2xAVO bober100 Скачать
6 | 0
Фильмы [HD 720p, 1080p] (Хороший звук DUB, MVO) [ 8.37 GB ] Солнцестояние / Midsommar [2019 BDRip 720p] [Режиссерская версия] +2xAVO bober100 Скачать
7 | 0
Фильмы 2019-2020 [DVDrip, WEB-DLRip, HDrip] (DUB, MVO) [ 2.84 GB ] Солнцестояние / Midsommar [2019 BDRip] [Режиссерская версия] bober100 Скачать
7 | 0
Фильмы с авторской озвучкой [ 2.91 GB ] Солнцестояние / Midsommar [2019 BDRip] [Режиссерская версия / Director's Cut] AVO Леонид Ильич Скачать
2 | 0
Ultra HD (UHD: 2K, 4K, 8K) — видео сверхвысокой чёткости [ 17.54 GB ] Солнцестояние / Midsommar [2019 UHD WEB-DL 2160p] DUB sheker187 Скачать
3 | 0

28-11-2019 20:33  

Отключить всю рекламу на сайте

02-10-2019 16:06 Солнцестояние Скачать торрент  

эти амеры везде нос сунут, вот и мрут как мухи, судя по фильмам)))pb.wtf



    Дорогой пользователь! Огромная просьба, поблагодарите релизера, оцените раздачу и оставьте свои комментарий, если Вы скачали Солнцестояние через торрент бесплатно! Внесите свою лепту в развитие PiratBit!
    Комментировать посты могут только пользователи прошедшие не сложную регистрацию
    Показать сообщения:    

    Солнцестояние через торрент
    Скачать бесплатно Солнцестояние
    Солнцестояние скачать торрент
    Солнцестояние смотреть онлайн
    Cкачать фильм Солнцестояние бесплатно
    Солнцестояние скачать торрент в хорошем качестве
    Солнцестояние смотреть онлайн бесплатно в хорошем качестве


    Вы не можете начинать темы
    Вы не можете отвечать на сообщения
    Вы не можете редактировать свои сообщения
    Вы не можете удалять свои сообщения
    Вы не можете голосовать в опросах
    Вы не можете прикреплять файлы к сообщениям
    Вы можете скачивать файлы