Архив 81

1 сезон

Добыча

Дубляж

Тед Лассо

3 сезон

Тор

1 сезон

13 клиническая

3 сезон

Жестокая ночь

Дубляж

Одни из нас

1s 9e

Premium

Premium

Deluxe

Deluxe

pack

Рекомендуем

30

Repack

ВАЖНО

ВАЖНО

Ghostwire

Пиратка

jed

RePack

nioh2

RePack

RDR2

RePack

NEED FOR SPEED™ PAYBACK

RePack

скачать торрент

Кинопоиск HD

Острые козырьки 6 сезон

6 сезон

FAR CRY 6

RePack

скачать торрент

Лицензия

скачать торрент

MVO

1

1 сезон

скачать торрент

1 сезон

скачать торрент

Лицензия

  

Разочарование / Disenchantment / Сезон: 1 / Серии: 1-20 из 20 (Мэтт Грейнинг) [2018, фэнтези, комедия, приключения, WEB-DL 1080p] MVO [TVShows]

Разочарование через торрент pb.wtf

Размер: 19.87 GB | Добавлен: 3 года 5 мес. назад | Торрент скачан:27 раз
Смотреть онлайн | Скачать | Поддержите нас   

03-10-2019 05:36 Разочарование Скачать торрент  

Разочарование / Disenchantment

Год выпуска: 2018
Страна: США
Жанр: Мультсериал, фэнтези, комедия, приключения
Продолжительность: ~ 00:30:00
Перевод: Профессиональный (многоголосый закадровый) | TVShows
Субтитры: Английские (full)

Режиссёр: Мэтт Грейнинг

В ролях: Эрик Андре, Мэтт Берри, Джон Ди Маджио, Нат Факсон, Ноэль Филдинг, Дэвид Херман, Эбби Джейкобсон, Морис ЛаМарш, Тресс МакНилл, Билли Уэст

Описание:Действие разворачивается в Средневековье в королевстве Бинландия, где живёт юная принцесса-алкоголичка Бин. Отказавшись выходить замуж, Бин отправляется в путешествие по стране в компании эльфа и демона. По дороге трио встретит множество фантастических тварей и дураков людского происхождения

семпл rating

Качество: WEB-DL 1080p
Формат: MKV

Видео: 1920x1080 (16:9), 23.976 fps, MPEG-4 AVC ~5 620 kbps avg
Аудио#1: 48.0 kHz, AC3 Dolby Digital, 3/2 (L,C,R,l,r) + LFE ch, ~384 kbps | RUS / MVO
Аудио#2: 48.0 kHz, Enhanced Audio Coding 3, 3/2 (L,C,R,l,r) + LFE ch, ~640 kbps | ENG
скриншот  скриншот  скриншот  скриншот  скриншот  

General
Уникальный идентификатор : 309644371097528981395047811755750531367 (0xE8F3562E16E30A85BCE6BA1DF8052127)
Полное имя : Disenchantment.S01E01.1080p.TVShows.mkv
Формат : Matroska
Версия формата : Version 4
Размер файла : 1,62 Гбайт
Продолжительность : 36 м. 10 с.
Режим общего битрейта : Переменный
Общий поток : 6417 Кбит/сек
Дата кодирования : UTC 2019-09-27 08:04:45
Программа кодирования : mkvmerge v33.1.0 ('Primrose') 64-bit
Библиотека кодирования : libebml v1.3.7 + libmatroska v1.5.0

Видео
Идентификатор : 1
Формат : AVC
Формат/Информация : Advanced Video Codec
Профиль формата : [email protected]
Настройки формата : CABAC / 3 Ref Frames
Параметр CABAC формата : Да
Параметр RefFrames формата : 3 кадра
Идентификатор кодека : V_MPEG4/ISO/AVC
Продолжительность : 36 м. 10 с.
Вид битрейта : Переменный
Битрейт : 5620 Кбит/сек
Максимальный битрейт : 8430 Кбит/сек
Ширина : 1920 пикселей
Высота : 1080 пикселей
Соотношение сторон : 16:9
Режим частоты кадров : Постоянный
Частота кадров : 23,976 (24000/1001) кадра/сек
Цветовое пространство : YUV
Субдискретизация насыщенности : 4:2:0
Битовая глубина : 8 бит
Тип развёртки : Прогрессивная
Бит/(Пиксели*Кадры) : 0.113
Размер потока : 1,36 Гбайт (84%)
Библиотека кодирования : x264 core 148 r2715 7e75228
Настройки программы : cabac=1 / ref=3 / deblock=1:0:0 / analyse=0x1:0x111 / me=umh / subme=10 / psy=1 / psy_rd=1.00:0.00 / mixed_ref=1 / me_range=24 / chroma_me=1 / trellis=2 / 8x8dct=0 / cqm=0 / deadzone=21,11 / fast_pskip=1 / chroma_qp_offset=-2 / threads=8 / lookahead_threads=1 / sliced_threads=0 / nr=0 / decimate=1 / interlaced=0 / bluray_compat=0 / stitchable=1 / constrained_intra=0 / bframes=2 / b_pyramid=0 / b_adapt=2 / b_bias=0 / direct=3 / weightb=1 / open_gop=0 / weightp=2 / keyint=48 / keyint_min=25 / scenecut=0 / intra_refresh=0 / rc_lookahead=48 / rc=2pass / mbtree=1 / bitrate=5620 / ratetol=1.0 / qcomp=0.50 / qpmin=6 / qpmax=51 / qpstep=4 / cplxblur=20.0 / qblur=0.5 / vbv_maxrate=8430 / vbv_bufsize=11240 / nal_hrd=vbr / filler=0 / ip_ratio=1.40 / aq=1:1.00
Default : Да
Forced : Нет

Аудио #1
Идентификатор : 2
Формат : AC-3
Формат/Информация : Audio Coding 3
Коммерческое название : Dolby Digital
Идентификатор кодека : A_AC3
Продолжительность : 36 м. 10 с.
Вид битрейта : Постоянный
Битрейт : 384 Кбит/сек
Каналы : 6 каналов
ChannelLayout : L R C LFE Ls Rs
Частота : 48,0 КГц
Частота кадров : 31,250 кадров/сек (1536 SPF)
Битовая глубина : 16 бит
Метод сжатия : С потерями
Размер потока : 99,4 Мбайт (6%)
Заголовок : TVShows
Язык : Russian
Default : Да
Forced : Да

Аудио #2
Идентификатор : 3
Формат : E-AC-3
Формат/Информация : Enhanced AC-3
Коммерческое название : Dolby Digital Plus
Идентификатор кодека : A_EAC3
Продолжительность : 36 м. 10 с.
Вид битрейта : Постоянный
Битрейт : 640 Кбит/сек
Каналы : 6 каналов
ChannelLayout : L R C LFE Ls Rs
Частота : 48,0 КГц
Частота кадров : 31,250 кадров/сек (1536 SPF)
Метод сжатия : С потерями
Размер потока : 166 Мбайт (10%)
Заголовок : Original
Язык : English
Default : Нет
Forced : Нет

Текст
Идентификатор : 4
Формат : UTF-8
Идентификатор кодека : S_TEXT/UTF8
Идентификатор кодека/Информация : UTF-8 Plain Text
Продолжительность : 33 м. 58 с.
Битрейт : 69 бит/сек
ElementCount : 534
Размер потока : 17,4 Кбайт (0%)
Заголовок : English
Язык : English
Default : Нет
Forced : Нет




Скачать Разочарование через торрент http://d.radikal.ru/d07/1910/47/c5b58c09aa17.jpg Скачать, смотреть онлайн Разочарование бесплантно в хорошем качестве Описание:Действие разворачивается в Средневековье в королевстве Бинландия, где живёт юная принцесса-алкоголичка Бин. Отказавшись выходить ... 10 10 2
Торрент: Зарегистрирован [2019-10-03 05:36] · скачан: 27 раз
Статус: √ проверено
Размер: 19.87 GB
Как cкачать? Как скачать Разочарование через торрент | UTorrent

% Раздел Тема Автор DL S | L
Мультсериалы [ 7.78 GB ] Разочарование / Disenchantment / Сезон: 4 / Серии: 1-10 из 10 | Пифагор | 1080p bober100 Скачать
3 | 0
Мультсериалы [ 12.67 GB ] Разочарование / Disenchantment / Сезон: 1 / Серии: 1-20 из 20 | TVShows | 720p bober100 Скачать
1 | 0
Мультсериалы [ 10.42 GB ] Разочарование / Disenchantment / Сезон: 1-3 / Серии: 1-30 из 30 | Пифагор | DLRip killermax2013 Скачать
1 | 1
Мультсериалы [ 6.67 GB ] Разочарование / Disenchantment / Сезон: 1 / Серии: 1-10 из 10 | Jaskier | 720p bober100 Скачать
1 | 0
Мультсериалы [ 3.75 GB ] Разочарование / Disenchantment / Сезон: 1 / Серии: 1-10 из 10 | Jaskier | DLRip bober100 Скачать
3 | 0

28-11-2019 20:33  


Отключить вcю реклaмy на сайте, в т.ч. и в плеере онлайн просмотра!

    Дорогой пользователь! Огромная просьба, поблагодарите релизера, оцените раздачу и оставьте свои комментарий, если Вы скачали Разочарование через торрент бесплатно!!
    Комментировать посты могут только пользователи прошедшие не сложную регистрацию
    Показать сообщения:    


    Разочарование через торрент
    Скачать бесплатно Разочарование
    Разочарование скачать торрент
    Разочарование смотреть онлайн
    Cкачать фильм Разочарование бесплатно
    Разочарование скачать торрент в хорошем качестве
    Разочарование смотреть онлайн бесплатно в хорошем качестве
    Вы не можете начинать темы
    Вы не можете отвечать на сообщения
    Вы не можете редактировать свои сообщения
    Вы не можете удалять свои сообщения
    Вы не можете голосовать в опросах
    Вы не можете прикреплять файлы к сообщениям
    Вы можете скачивать файлы
    Разочарование / Disenchantment / Сезон: 1 / Серии: 1-20 из 20 [2018, фэнтези, комедия, приключения, WEB-DL 1080p] MVO [TVShows] смотреть онлайн, скачать торрент picoco.icu