Всегда рабочее зеркало без VPN и Proxy просто перед .vidak.icu напиши любое слово или цифру, Пример http://icth.vidak.icu

MVO

2 сезон

2 сезон

1

1 сезон

iTunes

2 сезон

13

1 сезон

Deluxe

pack

Рекомендуем

Пиратка

30

ВАЖНО

RePack

MK11

RePack

jed

RePack

fifa19

RePack

RDR2

RePack

NEED FOR SPEED™ PAYBACK

Кинопоиск HD

6 сезон

 Острые козырьки 6 сезон

Все сериалы

все сериалы на PB.wtf

RePack

FAR CRY 5

Anonymous, нам критически не хватает 5601 руб. на оплату серверов и переферии за Апрель, помоги нам пожалуйста, вся надежда только на тебя. В благодарность мы отключим тебе всю рекламу на сайте!

×
  
Magnet ссылка

Новобранец / Новичок / The Rookie / Сезон: 2 / Серии: 1-9 из 13 (Роб Боумен, Майкл Гои, Лиза Демейн, Барбара Браун) [2019, драма, криминал, WEB-DL 720p] 2xMVO [LostFilm, HDRezka Studio] pb.wtf

Новобранец через торрент pb.wtf

Размер: 16.13 GB | Добавлен: 2 года 5 мес. назад | Торрент скачан:5 раз
Смотреть онлайн Новобранец | Скачать    Ребята, помогите собрать деньги на оплату серверов!!!

03-10-2019 07:20 Новобранец Скачать торрент  

Новобранец / Новичок / The Rookie Год выпуска: 2019
Страна: США, eOne Television, Perfectmon Pictures, ABC Studios
Жанр: драма, криминал
Продолжительность: ~ 00:43:00
Перевод: профессиональный (многоголосый закадровый) | LostFilm
Перевод: профессиональный (многоголосый закадровый) | HDRezka Studio

Субтитры: Английские (SDH)

Режиссёр: Роб Боумен, Майкл Гои, Лиза Демейн, Барбара Браун

В ролях: Нэйтан Филлион, Шон Эшмор, Эрик Винтер, Мелисса О’Нил, Амос Блэкмон, Сара Шахи, Алисса Диас, Титус Макин мл., Ричард Т. Джонс, Эми Дэвидсон

Описание: Кардинально изменить свою жизнь не так-то просто, особенно если ты среднестатистический мужчина 40 лет, выросший в маленьком городке и никогда не хватавший звезд с неба. Джон Нолан (Нэйтан Филлион) таким себя и считал, пока не оказался в банке в момент ограбления. Попытавшись затеять конструктивный диалог с вооруженным бандитом, он, сам того не планируя, выставил себя настоящим героем в глазах миловидной дамочки и внезапно понял - вот что значит настоящая жизнь! Быть героем, защитником, спасителем или еще лучше - всем сразу. Нолан поступил на службу в полицию Лос-Анджелеса, где стал самым старым новичком из всех прибывших. Среди коллег он моментально превратился в объект насмешек со стикером "пни меня" на спине, а для начальника оказался источником проблем и бельмом на глазу. Напарница Нолана и вовсе боится выходить с ним на задание, переживая, что из-за отсутствия опыта Джон либо погибнет сам, либо подставит под пули ее. И лишь пара человек во всем департаменте задумываются о том, что богатый жизненный опыт, житейская мудрость новичка, его самоотверженная работа над собой и несгибаемая целеустремленность в конечном итоге помогут ему стать хорошим копом. Сможет ли Джон Нолан доказать коллегам и начальству, что служба в полиции - его истинное призвание, или постоянные насмешки и череда неудач все же отправят его на свалку?...



Качество: WEB-DL 720p
Контейнер: MKV

Видео: AVC, 1280x720 (16:9), ~ 4720 Kbps, 23.976 fps
Аудио 1: AC3, 48 kHz, 6 ch, 640 kbps - Rus (LostFilm)
Аудио 2: AC3, 48 kHz, 6 ch, 384 kbps - Rus (HDRezka Studio)
Аудио 3: AC3, 48 kHz, 6 ch, 640 kbps - Eng


Реклама: Отсутствует

Спасибо:
Внимание! Раздача ведётся путём добавления новых серий; при каждом добавлении создаётся новый торрент.
Чтобы начать докачку новой серии, пользователям необходимо сделать следующее:
1. Остановить скачивание.
2. Удалить старый торрент у себя из клиента (старые серии удалять не надо).
3. Скачать новый торрент и запустить его у себя в клиенте вместо старого, при этом указать клиенту путь в старую папку куда и должно происходить скачивание новых серий.
Ваш клиент при этом должен произвести хеширование (проверку) старой папки (если не производит сам - помогите ему сделать это), и будет докачивать только те серии которых у вас ещё нет. Старые серии при этом не удаляются, а продолжают раздаваться!
Eсли вы уже удалили старые серии, то предотвратить повторную закачку старых серий можно, отжав галочку в соответствующих местах при запуске нового торрента.

Работа со звуком: itunestv@eniahd & Atla22
2-01. Последствия / Impact (30.09.2019)

Анонс:
2-02. The Night General (06.10.2019)
2-03. The Bet (13.10.2019)
2-04. Warriors And Guardians (20.10.2019)
Общее
Уникальный идентификатор : 191866228134333947280645644008446168080 (0x9058176684AD4E878694ABA48B0B0C10)
Полное имя : Новобранец. 2 сезон. 2019. MVO. EniaHD (WEB-DL 720p)\The.Rookie.s02e01. Последствия.mkv
Формат : Matroska
Версия формата : Version 2
Размер файла : 1,94 Гбайт
Продолжительность : 42 м. 41 с.
Общий поток : 6516 Кбит/сек
Название фильма : Impact
Дата кодирования : UTC 2019-11-12 09:57:39
Программа кодирования : mkvmerge v6.9.1 ('Blue Panther') 32bit built on Apr 18 2014 18:15:44
Библиотека кодирования : libebml v1.3.0 + libmatroska v1.4.1

Видео
Идентификатор : 1
Формат : AVC
Формат/Информация : Advanced Video Codec
Профиль формата : High@L3.1
Настройки формата : CABAC / 4 Ref Frames
Параметр CABAC формата : Да
Параметр RefFrames формата : 4 кадра
Идентификатор кодека : V_MPEG4/ISO/AVC
Продолжительность : 42 м. 41 с.
Вид битрейта : Постоянный
Битрейт : 4722 Кбит/сек
Номинальный битрейт : 6000 Кбит/сек
Ширина : 1280 пикселей
Высота : 720 пикселей
Соотношение сторон : 16:9
Режим частоты кадров : Постоянный
Частота кадров : 23,976 (24000/1001) кадра/сек
Цветовое пространство : YUV
Субдискретизация насыщенности : 4:2:0
Битовая глубина : 8 бит
Тип развёртки : Прогрессивная
Бит/(Пиксели*Кадры) : 0.214
Размер потока : 1,41 Гбайт (72%)
Язык : English
Default : Да
Forced : Нет
Цветовой диапазон : Limited
Основные цвета : BT.709
Характеристики трансфера : BT.709
Коэффициенты матрицы : BT.709

Аудио #1
Идентификатор : 2
Формат : AC-3
Формат/Информация : Audio Coding 3
Коммерческое название : Dolby Digital
Идентификатор кодека : A_AC3
Продолжительность : 42 м. 41 с.
Вид битрейта : Постоянный
Битрейт : 640 Кбит/сек
Каналы : 6 каналов
Channel layout : L R C LFE Ls Rs
Частота : 48,0 КГц
Частота кадров : 31,250 кадров/сек (1536 SPF)
Битовая глубина : 16 бит
Метод сжатия : С потерями
Размер потока : 195 Мбайт (10%)
Заголовок : LostFilm
Язык : Russian
ServiceKind/String : Complete Main
Default : Да
Forced : Нет

Аудио #2
Идентификатор : 3
Формат : AC-3
Формат/Информация : Audio Coding 3
Коммерческое название : Dolby Digital
Идентификатор кодека : A_AC3
Продолжительность : 42 м. 41 с.
Вид битрейта : Постоянный
Битрейт : 384 Кбит/сек
Каналы : 6 каналов
Channel layout : L R C LFE Ls Rs
Частота : 48,0 КГц
Частота кадров : 31,250 кадров/сек (1536 SPF)
Битовая глубина : 16 бит
Метод сжатия : С потерями
Размер потока : 117 Мбайт (6%)
Заголовок : TVShows
Язык : Russian
ServiceKind/String : Complete Main
Default : Нет
Forced : Нет

Аудио #3
Идентификатор : 4
Формат : AC-3
Формат/Информация : Audio Coding 3
Коммерческое название : Dolby Digital
Идентификатор кодека : A_AC3
Продолжительность : 42 м. 41 с.
Вид битрейта : Постоянный
Битрейт : 640 Кбит/сек
Каналы : 6 каналов
Channel layout : L R C LFE Ls Rs
Частота : 48,0 КГц
Частота кадров : 31,250 кадров/сек (1536 SPF)
Битовая глубина : 16 бит
Метод сжатия : С потерями
Размер потока : 195 Мбайт (10%)
Язык : English
ServiceKind/String : Complete Main
Default : Нет
Forced : Нет

Текст
Идентификатор : 5
Формат : UTF-8
Идентификатор кодека : S_TEXT/UTF8
Идентификатор кодека/Информация : UTF-8 Plain Text
Заголовок : SDH
Язык : English
Default : Нет
Forced : Нет
pb.wtf



Скачать Новобранец через торрент https://funkyimg.com/i/2XrWp.png Скачать, смотреть онлайн Новобранец бесплантно в хорошем качестве Описание: Кардинально изменить свою жизнь не так-то просто, особенно если ты среднестатистический мужчина 40 лет, выросший в маленьком ... 10 10 2
Торрент: Зарегистрирован [2019-12-07 14:35] · скачан: 5 раз
Статус: √ проверено
Размер: 16.13 GB
Как cкачать? Как скачать Новобранец через торрент | UTorrent

28-11-2019 20:33  

Отключить всю рекламу на сайте

    Дорогой пользователь! Огромная просьба, поблагодарите релизера, оцените раздачу и оставьте свои комментарий, если Вы скачали Новобранец через торрент бесплатно!
    Комментировать посты могут только пользователи прошедшие не сложную регистрацию
    Показать сообщения:    

    Новобранец через торрент
    Скачать бесплатно Новобранец
    Новобранец скачать торрент
    Новобранец смотреть онлайн
    Cкачать фильм Новобранец бесплатно
    Новобранец скачать торрент в хорошем качестве
    Новобранец смотреть онлайн бесплатно в хорошем качестве


    Вы не можете начинать темы
    Вы не можете отвечать на сообщения
    Вы не можете редактировать свои сообщения
    Вы не можете удалять свои сообщения
    Вы не можете голосовать в опросах
    Вы не можете прикреплять файлы к сообщениям
    Вы можете скачивать файлы