Всегда рабочее зеркало без VPN и Proxy просто перед .vidak.icu напиши любое слово или цифру, Пример http://0qyd.vidak.icu

MVO

2 сезон

1 сезон

1

1 сезон

iTunes

2 сезон

13

1 сезон

Распродажа

pack

Рекомендуем

Пиратка

30

ВАЖНО

RePack

MK11

RePack

jed

RePack

fifa19

RePack

RDR2

RePack

NEED FOR SPEED™ PAYBACK

Кинопоиск HD

6 сезон

 Острые козырьки 6 сезон

Все сериалы

все сериалы на PB.wtf

RePack

FAR CRY 5

Anonymous, нам критически не хватает 5601 руб. на оплату серверов и переферии за Апрель, помоги нам пожалуйста, вся надежда только на тебя. В благодарность мы отключим тебе всю рекламу на сайте!

×
  
Magnet ссылка

Новобранец / Новичок / The Rookie / Сезон: 2 / Серии: 1-15 из 20 (Роб Боумен, Майкл Гои, Лиза Демейн, Барбара Браун) [2019, драма, криминал, WEB-DL 1080p] MVO [TVShows] pb.wtf

Новобранец через торрент pb.wtf

Размер: 44.33 GB | Добавлен: 2 года 1 мес. назад | Торрент скачан:1 раз
Смотреть онлайн Новобранец | Скачать    Ребята, помогите собрать деньги на оплату серверов!!!

03-10-2019 08:01 Новобранец Скачать торрент  

Новобранец / Новичок / The Rookie Год выпуска: 2019
Страна: США, eOne Television, Perfectmon Pictures, ABC Studios
Жанр: драма, криминал
Продолжительность: ~ 00:43:00
Перевод: профессиональный (многоголосый закадровый) | TVShows
Субтитры: Английские

Режиссёр: Роб Боумен, Майкл Гои, Лиза Демейн, Барбара Браун

В ролях: Нэйтан Филлион, Шон Эшмор, Эрик Винтер, Мелисса О’Нил, Амос Блэкмон, Сара Шахи, Алисса Диас, Титус Макин мл., Ричард Т. Джонс, Эми Дэвидсон

Описание: Кардинально изменить свою жизнь не так-то просто, особенно если ты среднестатистический мужчина 40 лет, выросший в маленьком городке и никогда не хватавший звезд с неба. Джон Нолан (Нэйтан Филлион) таким себя и считал, пока не оказался в банке в момент ограбления. Попытавшись затеять конструктивный диалог с вооруженным бандитом, он, сам того не планируя, выставил себя настоящим героем в глазах миловидной дамочки и внезапно понял - вот что значит настоящая жизнь! Быть героем, защитником, спасителем или еще лучше - всем сразу. Нолан поступил на службу в полицию Лос-Анджелеса, где стал самым старым новичком из всех прибывших. Среди коллег он моментально превратился в объект насмешек со стикером "пни меня" на спине, а для начальника оказался источником проблем и бельмом на глазу. Напарница Нолана и вовсе боится выходить с ним на задание, переживая, что из-за отсутствия опыта Джон либо погибнет сам, либо подставит под пули ее. И лишь пара человек во всем департаменте задумываются о том, что богатый жизненный опыт, житейская мудрость новичка, его самоотверженная работа над собой и несгибаемая целеустремленность в конечном итоге помогут ему стать хорошим копом. Сможет ли Джон Нолан доказать коллегам и начальству, что служба в полиции - его истинное призвание, или постоянные насмешки и череда неудач все же отправят его на свалку?...



Качество: WEB-DL 1080p
Формат: MKV

Видео: MPEG-4 AVC, ~ 9196 Кбит/с, 1920x1080
Аудио#1: Русский (AC3, 6 ch, 384 Кбит/с)
Аудио#2: Английский (E-AC3, 6 ch, 640 Кбит/с)
скриншот  скриншот  скриншот  скриншот  скриншот  


Общее
Уникальный идентификатор : 79628681408643823402627158837183232019 (0x3BE7ED1B2947E26C47601368AE75B813)
Полное имя : D:\The.Rookie.S02.1080p.TVShows\The.Rookie.S02E01.1080p.TVShows.mkv
Формат : Matroska
Версия формата : Version 4 / Version 2
Размер файла : 3,05 Гбайт
Продолжительность : 42 м. 41 с.
Общий поток : 10,2 Мбит/сек
Дата кодирования : UTC 2019-10-03 06:53:46
Программа кодирования : mkvmerge v33.1.0 ('Primrose') 64-bit
Библиотека кодирования : libebml v1.3.7 + libmatroska v1.5.0

Видео
Идентификатор : 1
Формат : AVC
Формат/Информация : Advanced Video Codec
Профиль формата : High@L4
Параметр CABAC формата : Да
Параметр RefFrames формата : 4 кадра
Идентификатор кодека : V_MPEG4/ISO/AVC
Продолжительность : 42 м. 41 с.
Вид битрейта : Постоянный
Битрейт : 9196 Кбит/сек
Номинальный битрейт : 10000 Кбит/сек
Ширина : 1920 пикселей
Высота : 1080 пикселей
Соотношение сторон : 16:9
Режим частоты кадров : Постоянный
Частота кадров : 23,976 (24000/1001) кадра/сек
Цветовое пространство : YUV
Субдискретизация насыщенности : 4:2:0
Битовая глубина : 8 бит
Тип развёртки : Прогрессивная
Бит/(Пиксели*Кадры) : 0.185
Размер потока : 2,74 Гбайт (90%)
Default : Да
Forced : Нет
Цветовой диапазон : Limited
Основные цвета : BT.709
Характеристики трансфера : BT.709
Коэффициенты матрицы : BT.709

Аудио #1
Идентификатор : 2
Формат : AC-3
Формат/Информация : Audio Coding 3
Расширение режима : CM (complete main)
Параметр Endianness формата : Big
Идентификатор кодека : A_AC3
Продолжительность : 42 м. 41 с.
Вид битрейта : Постоянный
Битрейт : 384 Кбит/сек
Каналы : 6 каналов
Расположение каналов : Front: L C R, Side: L R, LFE
Частота : 48,0 КГц
Частота кадров : 31,250 кадров/сек (1536 spf)
Метод сжатия : С потерями
Размер потока : 117 Мбайт (4%)
Заголовок : TVShows
Язык : Russian
Default : Да
Forced : Да

Аудио #2
Идентификатор : 3
Формат : E-AC-3
Формат/Информация : Audio Coding 3
Параметр Endianness формата : Big
Идентификатор кодека : A_EAC3
Продолжительность : 42 м. 41 с.
Вид битрейта : Постоянный
Битрейт : 640 Кбит/сек
Каналы : 6 каналов
Расположение каналов : Front: L C R, Side: L R, LFE
Частота : 48,0 КГц
Частота кадров : 187,500 кадров/сек (256 spf)
Метод сжатия : С потерями
Размер потока : 195 Мбайт (6%)
Заголовок : Original
Язык : English
Default : Нет
Forced : Нет

Текст
Идентификатор : 4
Формат : UTF-8
Идентификатор кодека : S_TEXT/UTF8
Идентификатор кодека/Информация : UTF-8 Plain Text
Продолжительность : 42 м. 36 с.
Битрейт : 96 бит/сек
ElementCount : 1094
Размер потока : 30,0 Кбайт (0%)
Заголовок : English
Язык : English
Default : Нет
Forced : Нет

Внимание! Раздача ведётся путём добавления новых серий; при каждом добавлении создаётся новый торрент.
Чтобы начать докачку новой серии, пользователям необходимо сделать следующее:
1. Остановить скачивание.
2. Удалить старый торрент у себя из клиента (старые серии удалять не надо).
3. Скачать новый торрент и запустить его у себя в клиенте вместо старого, при этом указать клиенту путь в старую папку куда и должно происходить скачивание новых серий.
Ваш клиент при этом должен произвести хеширование (проверку) старой папки (если не производит сам - помогите ему сделать это), и будет докачивать только те серии которых у вас ещё нет. Старые серии при этом не удаляются, а продолжают раздаваться!
Eсли вы уже удалили старые серии, то предотвратить повторную закачку старых серий можно, отжав галочку в соответствующих местах при запуске нового торрента.
pb.wtf



Скачать Новобранец через торрент https://funkyimg.com/i/2XrWp.png Скачать, смотреть онлайн Новобранец бесплантно в хорошем качестве Описание: Кардинально изменить свою жизнь не так-то просто, особенно если ты среднестатистический мужчина 40 лет, выросший в маленьком ... 6.3 10 4
Торрент: Зарегистрирован [2020-04-09 11:25] · скачан: 1 раз
Статус: √ проверено
Размер: 44.33 GB
Как cкачать? Как скачать Новобранец через торрент | UTorrent

% Раздел Тема Автор DL S | L
Зарубежные сериалы [ 23.47 GB ] Новобранец / Новичок / The Rookie / Сезон: 2 / Серии: 1-15 из 20 [2019 WEB-DL 720p] MVO [TVShows] bober100 Скачать
1 | 0

28-11-2019 20:33  

Отключить всю рекламу на сайте

    Дорогой пользователь! Огромная просьба, поблагодарите релизера, оцените раздачу и оставьте свои комментарий, если Вы скачали Новобранец через торрент бесплатно!
    Комментировать посты могут только пользователи прошедшие не сложную регистрацию
    Показать сообщения:    

    Новобранец через торрент
    Скачать бесплатно Новобранец
    Новобранец скачать торрент
    Новобранец смотреть онлайн
    Cкачать фильм Новобранец бесплатно
    Новобранец скачать торрент в хорошем качестве
    Новобранец смотреть онлайн бесплатно в хорошем качестве


    Вы не можете начинать темы
    Вы не можете отвечать на сообщения
    Вы не можете редактировать свои сообщения
    Вы не можете удалять свои сообщения
    Вы не можете голосовать в опросах
    Вы не можете прикреплять файлы к сообщениям
    Вы можете скачивать файлы