Ссылка на приватное зеркало нашего сайта всего за 1$. Внимание количество ограничено!!!

2 сезон

iTunes

1 сезон

1

2 сезон

2 сезон

iTunes

1 сезон

RePack

30

Новинка

ВАЖНО

ИГРА 18+

pack

RePack

MK11
pack

Забери бонус

RePack

jed

!!Акция!!

Alien_Rage

RePack

fifa19

RePack

Assassins Creed: Odyssey

RePack

NEED FOR SPEED™ PAYBACK

4 сезон

9 сезон

Бесстыжие 9 сезон

Все сериалы

все сериалы на PB.wtf

RePack

FAR CRY 5
  

Между двумя папоротниками / Between Two Ferns: The Movie (Скотт Окерман) [2019, комедия, WEBRip 720p] DVO [Кубик в Кубе] +MVO [HDRezka Studio] pb.wtf

Между двумя папоротниками через торрент pb.wtf

Размер: 2.29 GB | Добавлен: 1 год 1 мес. назад | Торрент скачан:249 раз
Скачать  

03-10-2019 14:35 Между двумя папоротниками Скачать торрент  

Между двумя папоротниками / Between Two Ferns: The Movie
Год выпуска: 2019
Страна: США
Жанр: комедия
Продолжительность: 01:22:46
Перевод:

Двухголосый закадровый | Кубик в кубе
Многоголосый закадровый | HDRezka Studio

Субтитры: русские (форсированные, полные), английские.

Режиссер: Скотт Окерман

rating

В ролях: Зак Галифианакис, Мэттью МакКонахи, Рекха Шанкар, Мо Абул-Зелоф, Гэбриел Гандакер, Фил Хендри, Мэри Шир, Майк Айви, Мэтт Бессер

Описание: Заку Галифианакису придётся отправиться со своей съемочной командой в большое путешествие, чтобы взять интервью у знаменитостей первой величины и восстановить свою репутацию...

Качество: WEBRip 720p
Формат: MKV

Видео: MPEG-4 AVC, 2647 Кбит/с, 1280x640
Аудио#1: russian: 48 kHz, AC3, 6ch, 448 kbps avg | Двухголосый закадровый | Кубик в кубе
Аудио#2: russian: 48 kHz, AC3, 2ch, 224 kbps avg | Многоголосый закадровый | HDRezka Studio
Аудио#3: english: 48 kHz, AC3, 6ch, 640 kbps avg | Оригинальный английский звук |
скриншот  скриншот  

General
Format : Matroska
Format version : Version 4 / Version 2
File size : 2.29 GiB
Duration : 1 h 22 min
Overall bit rate : 3 961 kb/s
Encoded date : UTC 2019-10-03 13:00:11
Writing application : mkvmerge v9.2.0 ('Photograph') 64bit
Writing library : libebml v1.3.3 + libmatroska v1.4.4

Video
ID : 1
Format : AVC
Format/Info : Advanced Video Codec
Format profile : High@L4.1
Format settings, CABAC : Yes
Format settings, ReFrames : 5 frames
Codec ID : V_MPEG4/ISO/AVC
Duration : 1 h 22 min
Bit rate : 2 647 kb/s
Width : 1 280 pixels
Height : 640 pixels
Display aspect ratio : 2.000
Frame rate mode : Constant
Frame rate : 24.000 FPS
Color space : YUV
Chroma subsampling : 4:2:0
Bit depth : 8 bits
Scan type : Progressive
Bits/(Pixel*Frame) : 0.135
Stream size : 1.53 GiB (67%)
Title : AMRAP
Writing library : x264 core 157 r2935 545de2f
Encoding settings : cabac=1 / ref=5 / deblock=1:-3:-3 / analyse=0x3:0x113 / me=umh / subme=8 / psy=1 / psy_rd=1.00:0.00 / mixed_ref=1 / me_range=16 / chroma_me=1 / trellis=2 / 8x8dct=1 / cqm=0 / deadzone=21,11 / fast_pskip=1 / chroma_qp_offset=-2 / threads=20 / lookahead_threads=3 / sliced_threads=0 / nr=0 / decimate=1 / interlaced=0 / bluray_compat=0 / constrained_intra=0 / bframes=3 / b_pyramid=2 / b_adapt=1 / b_bias=0 / direct=3 / weightb=1 / open_gop=0 / weightp=2 / keyint=250 / keyint_min=24 / scenecut=40 / intra_refresh=0 / rc_lookahead=50 / rc=crf / mbtree=1 / crf=18.0 / qcomp=0.60 / qpmin=0 / qpmax=69 / qpstep=4 / ip_ratio=1.40 / aq=3:0.80
Language : English
Default : Yes
Forced : No

Audio #1
ID : 2
Format : AC-3
Format/Info : Audio Coding 3
Mode extension : CM (complete main)
Format settings, Endianness : Big
Codec ID : A_AC3
Duration : 1 h 22 min
Bit rate mode : Constant
Bit rate : 448 kb/s
Channel(s) : 6 channels
Channel positions : Front: L C R, Side: L R, LFE
Sampling rate : 48.0 kHz
Frame rate : 31.250 FPS (1536 spf)
Compression mode : Lossy
Stream size : 265 MiB (11%)
Title : Russian DVO Kubik v kube
Language : Russian
Default : Yes
Forced : No

Audio #2
ID : 3
Format : AC-3
Format/Info : Audio Coding 3
Mode extension : CM (complete main)
Format settings, Endianness : Big
Codec ID : A_AC3
Duration : 1 h 22 min
Bit rate mode : Constant
Bit rate : 224 kb/s
Channel(s) : 2 channels
Channel positions : Front: L R
Sampling rate : 48.0 kHz
Frame rate : 31.250 FPS (1536 spf)
Compression mode : Lossy
Stream size : 133 MiB (6%)
Title : Russian MVO HDRezka
Language : Russian
Default : No
Forced : No

Audio #3
ID : 4
Format : E-AC-3
Format/Info : Audio Coding 3
Format settings, Endianness : Big
Codec ID : A_EAC3
Duration : 1 h 22 min
Bit rate mode : Constant
Bit rate : 640 kb/s
Channel(s) : 6 channels
Channel positions : Front: L C R, Side: L R, LFE
Sampling rate : 48.0 kHz
Frame rate : 187.500 FPS (256 spf)
Compression mode : Lossy
Stream size : 379 MiB (16%)
Title : English
Language : English
Default : No
Forced : No

Text #1
ID : 5
Format : UTF-8
Codec ID : S_TEXT/UTF8
Codec ID/Info : UTF-8 Plain Text
Duration : 1 h 18 min
Bit rate : 1 b/s
Count of elements : 20
Stream size : 865 Bytes (0%)
Title : Forced
Language : Russian
Default : Yes
Forced : No

Text #2
ID : 6
Format : UTF-8
Codec ID : S_TEXT/UTF8
Codec ID/Info : UTF-8 Plain Text
Duration : 1 h 21 min
Bit rate : 116 b/s
Count of elements : 1721
Stream size : 69.5 KiB (0%)
Title : Russian
Language : Russian
Default : No
Forced : No

Text #3
ID : 7
Format : UTF-8
Codec ID : S_TEXT/UTF8
Codec ID/Info : UTF-8 Plain Text
Duration : 1 h 21 min
Bit rate : 100 b/s
Count of elements : 2001
Stream size : 60.1 KiB (0%)
Title : English
Language : English
Default : No
Forced : No

pb.wtf



Скачать Между двумя папоротниками через торрент http://a.radikal.ru/a42/1910/11/42fa971803a4.jpg Скачать фильм Между двумя папоротниками через торрент бесплантно в хорошем качестве Описание: Заку Галифианакису придётся отправиться со своей съемочной командой в большое путешествие, чтобы взять интервью у знаменитостей ... 8.6 10 10
Торрент: Зарегистрирован [2019-10-03 14:35] · скачан: 249 раз
Статус: √ проверено
Размер: 2.29 GB
Как cкачать? Как скачать Между двумя папоротниками через торрент | qTorrent

% Раздел Тема Автор DL S | L
Фильмы (WEB-DL 720p, 1080p) [ 3.43 GB ] Между двумя папоротниками / Between Two Ferns: The Movie [2019 WEB-DL 1080p] DVO [Кубик в Кубе] bober100 Скачать
1 | 0
Фильмы 2019-2020 [DVDrip, WEB-DLRip, HDrip] (DUB, MVO) [ 1.46 GB ] Между двумя папоротниками / Between Two Ferns: The Movie [2019 WEB-DLRip] DVO [Кубик в Кубе] bober100 Скачать
4 | 0


Последний раз редактировалось: bober100 (2019-10-03 14:45), всего редактировалось 1 раз

28-11-2019 20:33  

Отключить всю рекламу на сайте

03-10-2019 14:42 Между двумя папоротниками Скачать торрент  

поржать можно)pb.wtf



    Дорогой пользователь! Огромная просьба, поблагодарите релизера, оцените раздачу и оставьте свои комментарий, если Вы скачали Между двумя папоротниками через торрент бесплатно! Внесите свою лепту в развитие PiratBit!
    Комментировать посты могут только пользователи прошедшие не сложную регистрацию
    Показать сообщения:    

    Между двумя папоротниками через торрент
    Скачать бесплатно Между двумя папоротниками
    Между двумя папоротниками скачать торрент
    Между двумя папоротниками смотреть онлайн
    Cкачать фильм Между двумя папоротниками бесплатно
    Между двумя папоротниками скачать торрент в хорошем качестве
    Между двумя папоротниками смотреть онлайн бесплатно в хорошем качестве


    Вы не можете начинать темы
    Вы не можете отвечать на сообщения
    Вы не можете редактировать свои сообщения
    Вы не можете удалять свои сообщения
    Вы не можете голосовать в опросах
    Вы не можете прикреплять файлы к сообщениям
    Вы можете скачивать файлы