новый адрес пиратбит piratbit
Мега распродажа FORZA HORIZON 4 ULTIMATE+ВСЕ DLC+ОНЛАЙН всего за 499р. 349 руб. (супер цена). Внимание количество ограничено!!!

iTunes

1+1

iTunes

мы

iTunes

1

iTunes

Чернобыль

iTunes

Ральф против интернета

Лицензия

ПШазам

Лицензия

Игра престолов

Лицензия

30
pack

ВАЖНО

!!Акция!!

Alien_RageХит недели

RePack

Resident Evil 21

ИГРА 18+

pack

RePack

Metro:Exodus

!!Акция!!

Alien_Rage

RePack

fifa19

RePack

Assassins Creed: Odyssey

RePack

NEED FOR SPEED™ PAYBACK

3 сезон

9 сезон

Бесстыжие 9 сезон

Все сериалы

все сериалы на PB.wtf

RePack

FAR CRY 5
Ребята, катастрофически не хватает 1900р. для оплаты серверов за Октябрь (всвязи с блокировками трафик упал в 3 раза), 1-2р., выручайте.
  

Эбигейл (Александр Богуславский) [2019 г., приключения, фэнтези, семейный, WEB-DLRip, Не требуется Русский](iTunes) pb.wtf

Эбигейл через торрент pb.wtf

Раздают: 5 [ 0 KB/s ]
Размер: 708 MB | Добавлен: 1 мес. 11 д. назад | Торрент скачан:159 раз
Скачать  

03-10-2019 18:19 Эбигейл Скачать торрент  

Эбигейл
Год выпуска: 2019
Страна: Россия / KD Studios, Marc Graue Recording Studios: Voiceover and Post
Жанр: приключения, фэнтези, семейный
Продолжительность: 01:46:16
Перевод: Не требуется Русский (iTunes)

Режиссер: Александр Богуславский

rating

В ролях: Тинатин Далакишвили, Эдди Марсан, Артем Ткаченко, Равшана Куркова, Риналь Мухаметов, Глеб Бочков, Марта Тимофеева, Никита Тарасов, Ксения Кутепова, Петар Зекавица, Юлия Горохова, Владимир Антоник, Равшана Куркова, Николай Быстров, Вадим Медведев

Описание: Молодая девушка Эбигейл живет в городе, границы которого закрыли много лет назад из-за эпидемии загадочной болезни. Отец Эбби был одним из заболевших - и его забрали, когда ей было шесть лет. Пойдя наперекор властям, чтобы разыскать отца, Эбби узнает о том, что ее город на самом деле полон магии. И в ней самой пробуждаются необыкновенные магические способности...

Качество: WEB-DLRip
Формат: AVI
Видео кодек: DivX
Аудио кодек: MP3
Видео: 640x272 (2.35:1), 23.976 fps, DivX Codec 4.x ~794 kbps avg, 0.19 bit/pixel
Аудио: 48 kHz, MPEG Layer 3, 2 ch, ~128.00 kbps avg
скриншот   скриншот   скриншот   скриншот   скриншот   скриншот   скриншот   скриншот  

Общее
Полное имя : F:\ФИЛЬМЫ\Эбигейл.WEB-DLRip.avi
Формат : AVI
Формат/Информация : Audio Video Interleave
Размер файла : 708 Мбайт
Продолжительность : 1 ч. 46 м.
Общий поток : 932 Кбит/сек
Программа кодирования : VirtualDubMod 1.5.10.3 | www.virtualdub-fr.org || (build 2550/release)
Библиотека кодирования : VirtualDubMod build 2550/release

Видео
Идентификатор : 0
Формат : MPEG-4 Visual
Профиль формата : Advanced Simple@L5
Настройки формата : BVOP3 / GMC3 / QPel
Параметр BVOP формата : 3
Параметр QPel формата : Да
Параметр GMC формата : 3 точки перехода
Параметр матрицы формата : Default (MPEG)
Идентификатор кодека : DIVX
Идентификатор кодека/Информация : Project Mayo
Идентификатор кодека/Подсказка : DivX 4
Продолжительность : 1 ч. 46 м.
Битрейт : 794 Кбит/сек
Ширина : 640 пикселей
Высота : 272 пикселя
Соотношение сторон : 2,35:1
Частота кадров : 23,976 (24000/1001) кадра/сек
Цветовое пространство : YUV
Субдискретизация насыщенности : 4:2:0
Битовая глубина : 8 бит
Тип развёртки : Прогрессивная
Метод сжатия : С потерями
Бит/(Пиксели*Кадры) : 0.190
Размер потока : 604 Мбайт (85%)
Библиотека кодирования : XviD 1.2.1 (UTC 2008-12-04)

Аудио
Идентификатор : 1
Формат : MPEG Audio
Версия формата : Version 1
Профиль формата : Layer 3
Настройки формата : Joint stereo / MS Stereo
Идентификатор кодека : 55
Идентификатор кодека/Подсказка : MP3
Продолжительность : 1 ч. 46 м.
Вид битрейта : Постоянный
Битрейт : 128 Кбит/сек
Каналы : 2 канала
Частота : 48,0 КГц
Частота кадров : 41,667 кадра/сек (1152 SPF)
Метод сжатия : С потерями
Размер потока : 97,3 Мбайт (14%)
Выравнивание : Соединение по промежуткам
Продолжительность промежутка : 42 мс. (1,00 видеокадр)
Время предзагрузки промежутка : 504 мс.
Библиотека кодирования : LAME3.99r
Настройки программы : -m j -V 4 -q 2 -lowpass 17 -b 128

pb.wtf



Скачать Эбигейл через торрент http://pic1.kartinco.top/images/12/ccnkk.jpg Скачать фильм Эбигейл через торрент бесплантно в хорошем качестве Описание: Молодая девушка Эбигейл живет в городе, границы которого закрыли много лет назад из-за эпидемии загадочной болезни. Отец Эбби был ... 8.1 10 11
Торрент: Зарегистрирован [2019-10-03 18:19] · скачан: 159 раз
Статус: √ проверено
Размер: 708 MB
Как cкачать? Как скачать Эбигейл через торрент | qTorrent

% Раздел Тема Автор DL S | L
Наши фильмы (HD, WEB-DL 720p, 1080p) [ 3.28 GB ] Эбигейл [2019 WEB-DL 720p] bober100 Скачать
6 | 0
Наши новые фильмы 2018-2019 [ 1.59 GB ] Эбигейл [2019 WEB-DLRip-AVC] bober100 Скачать
17 | 1
Наши фильмы (HD, WEB-DL 720p, 1080p) [ 3.64 GB ] Эбигейл [2019 WEB-DL 1080p] bober100 Скачать
16 | 0
Наши новые фильмы 2018-2019 [ 1.44 GB ] Эбигейл [2019 WEB-DLRip] bober100 Скачать
18 | 0


>> Регистрируемся здесь <<






Отзывы и комментарии о схеме читаем и пишем здесь: ---> Отзывы и комментарии о схеме

Новые благодарочки в телеграм довольных пользователей:
скриншот   скриншот   скриншот   скриншот   скриншот
    Дорогой пользователь! Огромная просьба, поблагодарите релизера, оцените раздачу и оставьте свои комментарий, если Вы скачали Эбигейл через торрент бесплатно! Внесите свою лепту в развитие PiratBit!
    Комментировать посты могут только пользователи прошедшие не сложную регистрацию
    Показать сообщения:    

    Эбигейл через торрент
    Скачать бесплатно Эбигейл
    Эбигейл скачать торрент
    Эбигейл смотреть онлайн
    Cкачать фильм Эбигейл бесплатно
    Эбигейл скачать торрент в хорошем качестве
    Эбигейл смотреть онлайн бесплатно в хорошем качестве


    Вы не можете начинать темы
    Вы не можете отвечать на сообщения
    Вы не можете редактировать свои сообщения
    Вы не можете удалять свои сообщения
    Вы не можете голосовать в опросах
    Вы не можете прикреплять файлы к сообщениям
    Вы можете скачивать файлы