новый адрес пиратбит piratbit
Мега распродажа FORZA HORIZON 4 ULTIMATE+ВСЕ DLC+ОНЛАЙН всего за 499р. 349 руб. (супер цена). Внимание количество ограничено!!!

iTunes

1+1

iTunes

мы

iTunes

1

iTunes

Чернобыль

iTunes

Ральф против интернета

Лицензия

ПШазам

Лицензия

Игра престолов

Лицензия

30
pack

ВАЖНО

!!Акция!!

Alien_RageХит недели

RePack

Resident Evil 21

ИГРА 18+

pack

RePack

Metro:Exodus

!!Акция!!

Alien_Rage

RePack

fifa19

RePack

Assassins Creed: Odyssey

RePack

NEED FOR SPEED™ PAYBACK

3 сезон

9 сезон

Бесстыжие 9 сезон

Все сериалы

все сериалы на PB.wtf

RePack

FAR CRY 5
Ребята, катастрофически не хватает 1900р. для оплаты серверов за Октябрь (всвязи с блокировками трафик упал в 3 раза), 1-2р., выручайте.
  

История игрушек 4 / Toy Story 4 (Джош Кули) [2019, мультфильм, фэнтези, комедия, приключения, семейный, BDRip-AVC] DUB [Лицензия] +MVO [HDRezka Studio] pb.wtf

История игрушек 4 через торрент pb.wtf

Размер: 2.01 GB | Добавлен: 26 д. назад | Торрент скачан:30 раз
Скачать  

03-10-2019 18:43 История игрушек 4 Скачать торрент  

История игрушек 4 / Toy Story 4«Собирайтесь в дорогу»
Год выпуска: 2019
Страна: США
Жанр: мультфильм, фэнтези, комедия, приключения, семейный
Продолжительность: 01:40:03
Перевод:

#1: Дублированный | Лицензия
#2: Профессиональный многоголосый | HDRezka Studio

Субтитры: Русские (форс., полные, SDH), Английские (полные, SDH)

Режиссер: Джош Кули

rating

В ролях: Том Хэнкс, Тим Аллен, Энни Поттс, Тони Хейл, Кигэн-Майкл Ки, Мадлен МакГроу, Кристина Хендрикс, Джордан Пил, Киану Ривз, Элли Матсумура

Описание: Астронавт Базз, ковбой Вуди, пёс Слинки, тиранозавр Рекс и вся команда игрушек снова вместе, и они как никогда готовы к приключениям. С тех пор, как Энди поступил в колледж, игрушки поселились в доме своей новой хозяйки Бонни, которая вот-вот пойдет в детский сад. Первый день в детском саду положит начало череде событий, в которой найдется место и путешествиям с погонями, и знакомству с новыми игрушками, и встречам с некоторыми из старых друзей и даже романтической истории.

Качество: BDRip-AVC
Формат: MKV

Видео: 1024x428 (2.40:1), 23,976 fps, x264 ~1 788 kbps avg, 0.170 bit/pixel
Аудио#1: 48 kHz, AC3 Dolby Digital, 3/2 (L,C,R,l,r) + LFE ch, ~448.00 kbps avg | RUS (Лицензия)
Аудио#2: 48 kHz, AC3 Dolby Digital, 2/0 (L,R) ch, ~192.00 kbps avg | RUS (HDRezka Studio)
Аудио#3: 48 kHz, AC3 Dolby Digital, 3/2 (L,C,R,l,r) + LFE ch, ~448.00 kbps avg | ENG
скриншот  скриншот  скриншот  скриншот  скриншот  

Общее
Уникальный идентификатор : 63960302394162536108855108102956138555 (0x301E4E60B7C83FC927541F433072403B)
Полное имя : F:OlLanDGroupToy.Story.4.2019.BDRip(AVC).OlLanDGroup.mkv
Формат : Matroska
Версия формата : Version 4 / Version 2
Размер файла : 2,01 Гбайт
Продолжительность : 1 ч. 40 м.
Общий поток : 2879 Кбит/сек
Название фильма : Toy.Story.4.2019 #TorpedoUK#
Дата кодирования : UTC 2019-10-18 12:47:35
Программа кодирования : mkvmerge v29.0.0 ('Like It Or Not') 64-bit
Библиотека кодирования : libebml v1.3.6 + libmatroska v1.4.9

Видео
Идентификатор : 1
Формат : AVC
Формат/Информация : Advanced Video Codec
Профиль формата : High@L4.1
Параметр CABAC формата : Да
Параметр ReFrames формата : 10 кадров
Идентификатор кодека : V_MPEG4/ISO/AVC
Продолжительность : 1 ч. 40 м.
Битрейт : 1788 Кбит/сек
Ширина : 1024 пикселя
Высота : 428 пикселей
Соотношение сторон : 2,40:1
Режим частоты кадров : Постоянный
Частота кадров : 23,976 (24000/1001) кадра/сек
Цветовое пространство : YUV
Субдискретизация насыщенности : 4:2:0
Битовая глубина : 8 бит
Тип развёртки : Прогрессивная
Бит/(Пиксели*Кадры) : 0.170
Размер потока : 1,25 Гбайт (62%)
Библиотека кодирования : x264 core 146 r2538 121396c
Настройки программы : cabac=1 / ref=10 / deblock=1:-3:-3 / analyse=0x3:0x113 / me=umh / subme=11 / psy=1 / psy_rd=1.00:0.03 / mixed_ref=1 / me_range=48 / chroma_me=1 / trellis=2 / 8x8dct=1 / cqm=0 / deadzone=21,11 / fast_pskip=1 / chroma_qp_offset=-6 / threads=6 / lookahead_threads=1 / sliced_threads=0 / nr=0 / decimate=1 / interlaced=0 / bluray_compat=0 / constrained_intra=0 / bframes=11 / b_pyramid=2 / b_adapt=2 / b_bias=0 / direct=3 / weightb=1 / open_gop=0 / weightp=2 / keyint=240 / keyint_min=23 / scenecut=40 / intra_refresh=0 / rc_lookahead=40 / rc=2pass / mbtree=0 / bitrate=1788 / ratetol=1.0 / qcomp=0.60 / qpmin=0 / qpmax=69 / qpstep=4 / cplxblur=20.0 / qblur=0.5 / vbv_maxrate=50000 / vbv_bufsize=62500 / nal_hrd=none / filler=0 / ip_ratio=1.40 / pb_ratio=1.30 / aq=1:1.00
Язык : English
Default : Да
Forced : Нет

Аудио #1
Идентификатор : 2
Формат : AC-3
Формат/Информация : Audio Coding 3
Расширение режима : CM (complete main)
Параметр Endianness формата : Big
Идентификатор кодека : A_AC3
Продолжительность : 1 ч. 40 м.
Вид битрейта : Постоянный
Битрейт : 448 Кбит/сек
Каналы : 6 каналов
Расположение каналов : Front: L C R, Side: L R, LFE
Частота : 48,0 КГц
Частота кадров : 31,250 кадров/сек (1536 spf)
Битовая глубина : 16 бит
Метод сжатия : С потерями
Размер потока : 321 Мбайт (16%)
Заголовок : DUB [License]
Язык : Russian
Default : Да
Forced : Нет

Аудио #2
Идентификатор : 3
Формат : AC-3
Формат/Информация : Audio Coding 3
Расширение режима : CM (complete main)
Параметр Endianness формата : Big
Идентификатор кодека : A_AC3
Продолжительность : 1 ч. 40 м.
Вид битрейта : Постоянный
Битрейт : 192 Кбит/сек
Каналы : 2 канала
Расположение каналов : Front: L R
Частота : 48,0 КГц
Частота кадров : 31,250 кадров/сек (1536 spf)
Битовая глубина : 16 бит
Метод сжатия : С потерями
Размер потока : 137 Мбайт (7%)
Заголовок : MVO [HDRezka Studio]
Язык : Russian
Default : Нет
Forced : Нет

Аудио #3
Идентификатор : 4
Формат : AC-3
Формат/Информация : Audio Coding 3
Расширение режима : CM (complete main)
Параметр Endianness формата : Big
Идентификатор кодека : A_AC3
Продолжительность : 1 ч. 40 м.
Вид битрейта : Постоянный
Битрейт : 448 Кбит/сек
Каналы : 6 каналов
Расположение каналов : Front: L C R, Side: L R, LFE
Частота : 48,0 КГц
Частота кадров : 31,250 кадров/сек (1536 spf)
Битовая глубина : 16 бит
Метод сжатия : С потерями
Размер потока : 321 Мбайт (16%)
Заголовок : [Original]
Язык : English
Default : Нет
Forced : Нет

Текст #1
Идентификатор : 5
Формат : UTF-8
Идентификатор кодека : S_TEXT/UTF8
Идентификатор кодека/Информация : UTF-8 Plain Text
Продолжительность : 1 ч. 38 м.
Битрейт : 0 бит/сек
Count of elements : 17
Размер потока : 648 байт (0%)
Заголовок : Forced
Язык : Russian
Default : Да
Forced : Нет

Текст #2
Идентификатор : 6
Формат : UTF-8
Идентификатор кодека : S_TEXT/UTF8
Идентификатор кодека/Информация : UTF-8 Plain Text
Продолжительность : 1 ч. 39 м.
Битрейт : 106 бит/сек
Count of elements : 1656
Размер потока : 77,2 Кбайт (0%)
Заголовок : Full
Язык : Russian
Default : Нет
Forced : Нет

Текст #3
Идентификатор : 7
Формат : UTF-8
Идентификатор кодека : S_TEXT/UTF8
Идентификатор кодека/Информация : UTF-8 Plain Text
Продолжительность : 1 ч. 39 м.
Битрейт : 121 бит/сек
Count of elements : 2039
Размер потока : 88,7 Кбайт (0%)
Заголовок : SDH
Язык : Russian
Default : Нет
Forced : Нет

Текст #4
Идентификатор : 8
Формат : UTF-8
Идентификатор кодека : S_TEXT/UTF8
Идентификатор кодека/Информация : UTF-8 Plain Text
Продолжительность : 1 ч. 39 м.
Битрейт : 63 бит/сек
Count of elements : 1806
Размер потока : 46,3 Кбайт (0%)
Заголовок : Full
Язык : English
Default : Нет
Forced : Нет

Текст #5
Идентификатор : 9
Формат : UTF-8
Идентификатор кодека : S_TEXT/UTF8
Идентификатор кодека/Информация : UTF-8 Plain Text
Продолжительность : 1 ч. 39 м.
Битрейт : 76 бит/сек
Count of elements : 2062
Размер потока : 55,5 Кбайт (0%)
Заголовок : SDH
Язык : English
Default : Нет
Forced : Нет

Меню
00:00:00.000 : :Глава 01
00:05:39.797 : :Глава 02
00:11:21.097 : :Глава 03
00:15:06.238 : :Глава 04
00:19:01.139 : :Глава 05
00:20:52.042 : :Глава 06
00:22:43.820 : :Глава 07
00:26:11.111 : :Глава 08
00:27:47.081 : :Глава 09
00:32:11.846 : :Глава 10
00:36:17.425 : :Глава 11
00:40:34.640 : :Глава 12
00:42:56.698 : :Глава 13
00:44:26.872 : :Глава 14
00:46:39.379 : :Глава 15
00:48:06.174 : :Глава 16
00:49:18.663 : :Глава 17
00:52:25.809 : :Глава 18
00:53:58.568 : :Глава 19
00:54:34.479 : :Глава 20
00:59:06.959 : :Глава 21
01:01:30.644 : :Глава 22
01:04:40.751 : :Глава 23
01:07:25.249 : :Глава 24
01:09:31.041 : :Глава 25
01:10:54.833 : :Глава 26
01:12:05.153 : :Глава 27
01:15:03.039 : :Глава 28
01:17:29.769 : :Глава 29
01:18:04.846 : :Глава 30
01:19:21.840 : :Глава 31
01:19:48.116 : :Глава 32
01:22:24.939 : :Глава 33
01:29:00.292 : :Глава 34

pb.wtf



Скачать История игрушек 4 через торрент https://i90.fastpic.ru/big/2019/0930/82/1ba7348dda652a5d26e42694df4d7682.jpg Скачать фильм История игрушек 4 через торрент бесплантно в хорошем качестве Описание: Астронавт Базз, ковбой Вуди, пёс Слинки, тиранозавр Рекс и вся команда игрушек снова вместе, и они как никогда готовы к ... 10 10 6
Торрент: Зарегистрирован [2019-10-18 13:09] · скачан: 30 раз
Статус: √ проверено
Размер: 2.01 GB
Как cкачать? Как скачать История игрушек 4 через торрент | qTorrent

% Раздел Тема Автор DL S | L
Иностранные мультфильмы [ 1.46 GB ] История игрушек 4 / Toy Story 4 [2019 мультфильм BDRip] - [] Twi7ter Скачать
72 | 4
Зарубежные Мультфильмы (BDRip 1080p, 720p, Blu-ray, BD-Remux) [ 37.26 GB ] История игрушек 4 / Toy Story 4 [2019 мультфильм Blu-ray EUR 1080p] DUB [] bober100 Скачать
1 | 0
3D Мультфильмы [ 13.42 GB ] История игрушек 4 в 3Д / Toy Story 4 3D [2019 мультфильм BDRip 1080p] OverUnder / Вертикальная стереопара serega768 Скачать
1 | 0
Ultra HD (UHD: 2K, 4K, 8K) [ 17.9 GB ] История игрушек 4 / Toy Story 4 [2019 мультфильм UHD BDRip 2160p] [SDR] DUB [] +MVO [HDRezka Studio] bober100 Скачать
2 | 0
3D Мультфильмы [ 9.38 GB ] История игрушек 4 3Д / Toy Story 4 3D [2019 мультфильм BDRip 1080p] [Half OverUnder] DUB [] bober100 Скачать
3 | 0
Иностранные мультфильмы [ 749 MB ] История игрушек 4 / Toy Story 4 [2019 мультфильм HDRip] DUB [] bober100 Скачать
4 | 1
Ultra HD (UHD: 2K, 4K, 8K) [ 16.05 GB ] История игрушек 4 / Toy Story 4 [2019 мультфильм UHD BDRip 2160p] DUB [] +MVO [HDRezka Studio] bober100 Скачать
1 | 0


>> Регистрируемся здесь <<






Отзывы и комментарии о схеме читаем и пишем здесь: ---> Отзывы и комментарии о схеме

Новые благодарочки в телеграм довольных пользователей:
скриншот   скриншот   скриншот   скриншот   скриншот
    Дорогой пользователь! Огромная просьба, поблагодарите релизера, оцените раздачу и оставьте свои комментарий, если Вы скачали История игрушек 4 через торрент бесплатно! Внесите свою лепту в развитие PiratBit!
    Комментировать посты могут только пользователи прошедшие не сложную регистрацию
    Показать сообщения:    

    История игрушек 4 через торрент
    Скачать бесплатно История игрушек 4
    История игрушек 4 скачать торрент
    История игрушек 4 смотреть онлайн
    Cкачать фильм История игрушек 4 бесплатно
    История игрушек 4 скачать торрент в хорошем качестве
    История игрушек 4 смотреть онлайн бесплатно в хорошем качестве


    Вы не можете начинать темы
    Вы не можете отвечать на сообщения
    Вы не можете редактировать свои сообщения
    Вы не можете удалять свои сообщения
    Вы не можете голосовать в опросах
    Вы не можете прикреплять файлы к сообщениям
    Вы можете скачивать файлы