Ссылка на приватное зеркало всего за 1$. Внимание количество ограничено!!!

OK

1+1

iTunes

мы

OK

1

WEB-DLRip

Джокер

Пифагор

Ведьмак / The Witcher сериал

Лицензия

ПШазам

ОК

Оно 2

iTunes

30
pack

Вам бонус

ВАЖНО

!!Акция!!

Alien_RageХит недели

RePack

Resident Evil 21

ИГРА 18+

pack

RePack

jed

RePack

fifa19

RePack

Assassins Creed: Odyssey

RePack

NEED FOR SPEED™ PAYBACK

4 сезон

9 сезон

Бесстыжие 9 сезон

Все сериалы

все сериалы на PB.wtf

RePack

FAR CRY 5
  

Али, рули! / Stuber (Майкл Даус / Michael Dowse) [2019, Боевик, триллер, комедия, криминал, WEB-DL 1080p] 2x[DUB] (Rus, Ukr) [iTunes] pb.wtf

Али, рули! через торрент pb.wtf

Размер: 5.09 GB | Добавлен: 3 мес. 18 д. назад | Торрент скачан:624 раза
Скачать  

04-10-2019 12:57 Али, рули! Скачать торрент  

Али, рули! / Stuber
«Поездка на пять звёзд»
Страна: США
Жанр: Боевик, триллер, комедия, криминал
Год выпуска: 2019
Продолжительность: 01:33:23
Перевод 1: Дублированный | (iTunes)
Перевод 2: Украинский (дублированный) | (iTunes)
Cубтитры: Русские (Full-length, Forced - iTunes), Украинские (Full-length, Forced - iTunes), Английские (Full, SDH)
Режиссёр: Майкл Даус / Michael Dowse

В ролях: Кумэйл Нанджиани, Дэйв Батиста, Мира Сорвино, Натали Моралес, Ико Уайс, Бетти Гилпин, Карен Гиллан, Джимми Татро, Стив Хоуи, Рене Моран

Описание: Скромный водитель Uber по имени Стю подбирает пассажира, который оказывается полицейским, идущим по следу жестокого убийцы. Таксист даже представить не мог, что теперь его ждет мучительное испытание, в ходе которого он будет отчаянно пытаться сохранить здравомыслие, жизнь и пятизвездочный рейтинг в приложении.



Тип релиза: WEB-DL 1080p Amazon
Контейнер: MKV
Видео: AVC/H.264, 1920x800, 6650 Kbps, 23.976 fps
Аудио 1: Русский | AC-3, 6 ch, 384 Kbps, 48.0 KHz Dub iTunes
Аудио 2: Украинский | AAC, 2.0 ch, 128 Kbps, 44.1 KHz Dub iTunes
Аудио 3: Английский | E-AC-3, 6 ch, 640 Kbps, 48.0 KHz




General
Unique ID : 200707277864307499907606448564334729766 (0x96FED0CE68609C24D1F83F10E7E39A26)
Complete name : /Volumes/Promise 2/Stuber.WEB-DL.1080p.AMZ.BlueBird.mkv
Format : Matroska
Format version : Version 4
File size : 5.09 GiB
Duration : 1h 33mn
Overall bit rate : 7 804 Kbps
Movie name : Stuber WEB-DL 1080p Amazon BlueBird
Encoded date : UTC 2019-10-04 10:25:52
Writing application : mkvmerge v37.0.0 ('Leave It') 64-bit
Writing library : libebml v1.3.9 + libmatroska v1.5.2
Cover : Yes
Attachments : cover.png

Video
ID : 1
Format : AVC
Format/Info : Advanced Video Codec
Format profile : High@L4
Format settings : CABAC / 4 Ref Frames
Format settings, CABAC : Yes
Format settings, ReFrames : 4 frames
Codec ID : V_MPEG4/ISO/AVC
Duration : 1h 33mn
Bit rate mode : Constant
Bit rate : 6 650 Kbps
Nominal bit rate : 10 000 Kbps
Width : 1 920 pixels
Height : 800 pixels
Display aspect ratio : 2.40:1
Frame rate mode : Constant
Frame rate : 23.976 (24000/1001) fps
Color space : YUV
Chroma subsampling : 4:2:0
Bit depth : 8 bits
Scan type : Progressive
Bits/(Pixel*Frame) : 0.181
Stream size : 4.34 GiB (85%)
Language : English
Default : Yes
Forced : No
Color range : Limited
Color primaries : BT.709
Transfer characteristics : BT.709
Matrix coefficients : BT.709

Audio #1
ID : 2
Format : AC-3
Format/Info : Audio Coding 3
Commercial name : Dolby Digital
Codec ID : A_AC3
Duration : 1h 33mn
Bit rate mode : Constant
Bit rate : 384 Kbps
Channel(s) : 6 channels
Channel layout : L R C LFE Ls Rs
Sampling rate : 48.0 KHz
Frame rate : 31.250 fps (1536 SPF)
Bit depth : 16 bits
Compression mode : Lossy
Stream size : 256 MiB (5%)
Title : Russian Dub iTunes
Language : Russian
Service kind : Complete Main
Default : Yes
Forced : No

Audio #2
ID : 3
Format : AAC LC
Format/Info : Advanced Audio Codec Low Complexity
Codec ID : A_AAC-2
Duration : 1h 33mn
Bit rate : 125 Kbps
Channel(s) : 2 channels
Channel layout : L R
Sampling rate : 44.1 KHz
Frame rate : 43.066 fps (1024 SPF)
Compression mode : Lossy
Stream size : 83.3 MiB (2%)
Title : Ukrainian Dub iTunes
Language : Ukrainian
Default : No
Forced : No

Audio #3
ID : 4
Format : E-AC-3
Format/Info : Enhanced AC-3
Commercial name : Dolby Digital Plus
Codec ID : A_EAC3
Duration : 1h 33mn
Bit rate mode : Constant
Bit rate : 640 Kbps
Channel(s) : 6 channels
Channel layout : L R C LFE Ls Rs
Sampling rate : 48.0 KHz
Frame rate : 31.250 fps (1536 SPF)
Compression mode : Lossy
Stream size : 427 MiB (8%)
Title : English Original
Language : English
Service kind : Complete Main
Default : No
Forced : No

Text #1
ID : 5
Format : UTF-8
Codec ID : S_TEXT/UTF8
Codec ID/Info : UTF-8 Plain Text
Duration : 1h 27mn
Bit rate : 1 bps
Count of elements : 24
Stream size : 807 Bytes (0%)
Title : Russian forced
Language : Russian
Default : Yes
Forced : Yes

Text #2
ID : 6
Format : UTF-8
Codec ID : S_TEXT/UTF8
Codec ID/Info : UTF-8 Plain Text
Duration : 1h 27mn
Bit rate : 1 bps
Count of elements : 20
Stream size : 695 Bytes (0%)
Title : Ukrainian forced
Language : Ukrainian
Default : No
Forced : No

Text #3
ID : 7
Format : UTF-8
Codec ID : S_TEXT/UTF8
Codec ID/Info : UTF-8 Plain Text
Duration : 1h 32mn
Bit rate : 113 bps
Count of elements : 1819
Stream size : 77.3 KiB (0%)
Title : Russian Full-length
Language : Russian
Default : No
Forced : No

Text #4
ID : 8
Format : UTF-8
Codec ID : S_TEXT/UTF8
Codec ID/Info : UTF-8 Plain Text
Duration : 1h 32mn
Bit rate : 115 bps
Count of elements : 1813
Stream size : 78.6 KiB (0%)
Title : Ukrainian Full-length
Language : Ukrainian
Default : No
Forced : No

Text #5
ID : 9
Format : UTF-8
Codec ID : S_TEXT/UTF8
Codec ID/Info : UTF-8 Plain Text
Duration : 1h 32mn
Bit rate : 79 bps
Count of elements : 1969
Stream size : 53.8 KiB (0%)
Title : English Full-length
Language : English
Default : No
Forced : No

Text #6
ID : 10
Format : UTF-8
Codec ID : S_TEXT/UTF8
Codec ID/Info : UTF-8 Plain Text
Duration : 1h 32mn
Bit rate : 85 bps
Count of elements : 2154
Stream size : 58.2 KiB (0%)
Title : English SDH
Language : English
Default : No
Forced : No

Menu
00:00:00.000 : en:1
00:05:52.435 : en:2
00:09:57.221 : en:3
00:14:14.853 : en:4
00:17:30.673 : en:5
00:19:46.308 : en:6
00:22:40.273 : en:7
00:27:33.399 : en:8
00:31:30.886 : en:9
00:33:19.244 : en:10
00:35:39.884 : en:11
00:40:13.032 : en:12
00:45:05.199 : en:13
00:49:10.110 : en:14
00:52:36.983 : en:15
00:56:46.107 : en:16
01:01:54.248 : en:17
01:05:43.644 : en:18
01:08:37.192 : en:19
01:13:31.152 : en:20
01:16:44.512 : en:21
01:19:07.530 : en:22
01:23:54.775 : en:23
01:27:49.593 : en:24
скриншот  скриншот  скриншот  
pb.wtf



Скачать Али, рули! через торрент https://i90.fastpic.ru/big/2019/1004/eb/2db2ea9fb0ae3bc09e2de83fa0180feb.jpg Скачать фильм Али, рули! через торрент бесплантно в хорошем качестве Описание: Скромный водитель Uber по имени Стю подбирает пассажира, который оказывается полицейским, идущим по следу жестокого убийцы. ... 10 10 14
Торрент: Зарегистрирован [2019-10-04 12:57] · скачан: 624 раз
Статус: √ проверено
Размер: 5.09 GB
Как cкачать? Как скачать Али, рули! через торрент | qTorrent

% Раздел Тема Автор DL S | L
Фильмы 2019-2020 [DVDrip, WEB-DLRip, HDrip] (DUB, MVO) [ 1.42 GB ] Али рули! / Stuber [2019 BDRip] - Twi7ter Скачать
69 | 4
Фильмы [HD 720p, 1080p] (Хороший звук DUB, MVO) [ 7.68 GB ] Али рули! / Stuber [2019 UHD BDRip 1080p] DUB bober100 Скачать
7 | 0
Фильмы (WEB-DL 720p, 1080p) [ 2.61 GB ] Али рули! / Stuber [2019 WEB-DL 720p] bober100 Скачать
12 | 0
Фильмы 2019-2020 [DVDrip, WEB-DLRip, HDrip] (DUB, MVO) [ 1.73 GB ] Али рули! / Stuber [2019 BDRip-AVC] bober100 Скачать
4 | 0
Фильмы [HD 720p, 1080p] (Хороший звук DUB, MVO) [ 3.95 GB ] Али рули! / Stuber [2019 BDRip 720p] DUB bober100 Скачать
4 | 0
Фильмы 2019-2020 [DVDrip, WEB-DLRip, HDrip] (DUB, MVO) [ 1.42 GB ] Али рули! / Stuber [2019 BDRip] DUB [iTuens] bober100 Скачать
3 | 0
Фильмы (Blu-ray, BD-Remux, HDDVD) [ 23.03 GB ] Али рули! / Stuber [2019 BD Remux 1080p] DUB bober100 Скачать
2 | 0

28-11-2019 20:33  

Отключить всю рекламу на сайте

    Дорогой пользователь! Огромная просьба, поблагодарите релизера, оцените раздачу и оставьте свои комментарий, если Вы скачали Али, рули! через торрент бесплатно! Внесите свою лепту в развитие PiratBit!
    Комментировать посты могут только пользователи прошедшие не сложную регистрацию
    Показать сообщения:    

    Али, рули! через торрент
    Скачать бесплатно Али, рули!
    Али, рули! скачать торрент
    Али, рули! смотреть онлайн
    Cкачать фильм Али, рули! бесплатно
    Али, рули! скачать торрент в хорошем качестве
    Али, рули! смотреть онлайн бесплатно в хорошем качестве


    Вы не можете начинать темы
    Вы не можете отвечать на сообщения
    Вы не можете редактировать свои сообщения
    Вы не можете удалять свои сообщения
    Вы не можете голосовать в опросах
    Вы не можете прикреплять файлы к сообщениям
    Вы можете скачивать файлы