Ссылка на приватное зеркало нашего сайта всего за 1$. Внимание количество ограничено!!!

2 сезон

iTunes

1 сезон

1

iTunes

iTunes

iTunes

1 сезон

RePack

30

ИГРА 18+

pack

ВАЖНО

!!Акция!!

Alien_RageХит недели

RePack

MK11
pack

Забери бонус

RePack

jed

!!Акция!!

Alien_Rage

RePack

fifa19

RePack

Assassins Creed: Odyssey

RePack

NEED FOR SPEED™ PAYBACK

4 сезон

9 сезон

Бесстыжие 9 сезон

Все сериалы

все сериалы на PB.wtf

RePack

FAR CRY 5
  

Заложники / Серии: 1-2 из 2 (Кира Ангелина) [2019, Мелодрама, триллер, WEB-DL 1080p] pb.wtf

Заложники через торрент pb.wtf

Размер: 3.26 GB | Добавлен: 1 год назад | Торрент скачан:50 раз
Скачать  

05-10-2019 01:12 Заложники Скачать торрент  

Заложники
Год выпуска: 2019
Страна: Россия
Жанр: Мелодрама, триллер
Продолжительность: ~ 00:45:00 серия
Перевод: Не требуется
Субтитры: отсутствуют

Режиссер: Кира Ангелина



В ролях: Евгения Осипова, Константин Соловьёв, Станислав Бондаренко, Антонина Паперная, Татьяна Яковенко, Леонид Громов, Сергей Канаев, Ульяна Куликова, Самвел Мужикян, Дмитрий Гусев, Семён Лопатин

Описание: Свой день рождения Анна решает отпраздновать в кругу самых близких. Она только что помирилась со своим женихом Дмитрием. Рядом мама, дочка и лучшая подруга. Дмитрий делает Анне предложение. Кажется, этот день должен стать самым счастливым в ее жизни. И никто не догадывается, что очень скоро праздник обернется настоящим кошмаром.

Качество: WEB-DL 1080p
Формат: MKV

Видео: 1920х1080 (16:9), 25 fps, AVC MPEG-4 (x264), High@L4.1 ~ 5000 kbps avg, 0.097 bit/pixel
Аудио: 48 kHz, AC3, 2 ch, 192 kbps avg
скриншот  скриншот  скриншот  скриншот  

Общее
Уникальный идентификатор : 250766105330577649235146937556674515885 (0xBCA7CB8D98E447439BD9CD35232B93AD)
Полное имя : G:Zalozhniki.2019.WEB-DL.(1080p).ExKinoRayZalozhniki.E01.2019.WEB-DL.(1080p).ExKinoRay.mkv
Формат : Matroska
Версия формата : Version 4 / Version 2
Размер файла : 1,63 Гбайт
Продолжительность : 44 м. 0 с.
Общий поток : 5305 Кбит/сек
Дата кодирования : UTC 2019-10-04 22:14:35
Программа кодирования : mkvmerge v6.9.1 ('Blue Panther') 64bit built on Apr 18 2014 18:23:38
Библиотека кодирования : libebml v1.3.0 + libmatroska v1.4.1

Видео
Идентификатор : 1
Формат : AVC
Формат/Информация : Advanced Video Codec
Профиль формата : High@L4
Настройки формата : CABAC / 4 Ref Frames
Параметр CABAC формата : Да
Параметр RefFrames формата : 4 кадра
Идентификатор кодека : V_MPEG4/ISO/AVC
Продолжительность : 44 м. 0 с.
Битрейт : 5008 Кбит/сек
Ширина : 1920 пикселей
Высота : 1080 пикселей
Соотношение сторон : 16:9
Режим частоты кадров : Постоянный
Частота кадров : 25,000 кадров/сек
Цветовое пространство : YUV
Субдискретизация насыщенности : 4:2:0
Битовая глубина : 8 бит
Тип развёртки : Прогрессивная
Бит/(Пиксели*Кадры) : 0.097
Размер потока : 1,54 Гбайт (94%)
Default : Да
Forced : Нет

Аудио
Идентификатор : 2
Формат : AC-3
Формат/Информация : Audio Coding 3
Идентификатор кодека : A_AC3
Продолжительность : 44 м. 0 с.
Вид битрейта : Постоянный
Битрейт : 192 Кбит/сек
Каналы : 2 канала
Расположение каналов : Front: L R
Частота : 48,0 КГц
Частота кадров : 31,250 кадров/сек (1536 SPF)
Битовая глубина : 16 бит
Метод сжатия : С потерями
Размер потока : 60,4 Мбайт (4%)
Язык : Russian
Default : Да
Forced : Нет

pb.wtf



Скачать Заложники через торрент https://img15.lostpic.net/2019/10/05/995f9490ded4851656a440b172390cbc.jpg Скачать фильм Заложники через торрент бесплантно в хорошем качестве Описание: Свой день рождения Анна решает отпраздновать в кругу самых близких. Она только что помирилась со своим женихом Дмитрием. Рядом ... 10 10 3
Торрент: Зарегистрирован [2019-10-05 01:12] · скачан: 50 раз
Статус: √ проверено
Размер: 3.26 GB
Как cкачать? Как скачать Заложники через торрент | qTorrent

% Раздел Тема Автор DL S | L
Зарубежные сериалы [ 16.91 GB ] В заложниках / Gidseltagningen / Below the Surface / Сезон: 2 / Серии: 1-8 из 8 [2019 WEB-DL 1080p] [MVO] killermax2013 Скачать
1 | 0
Зарубежные сериалы [ 12.27 GB ] В заложниках / Gidseltagningen / Below the Surface / Сезон: 2 / Серии: 1-8 из 8 [2019 WEB-DL 720p] [MVO] killermax2013 Скачать
1 | 0
Наши сериалы [ 1.03 GB ] Заложники / Серии: 1-2 из 2 [2019 SATRip-AVC] aleksan55 Скачать
1 | 0

28-11-2019 20:33  

Отключить всю рекламу на сайте

    Дорогой пользователь! Огромная просьба, поблагодарите релизера, оцените раздачу и оставьте свои комментарий, если Вы скачали Заложники через торрент бесплатно! Внесите свою лепту в развитие PiratBit!
    Комментировать посты могут только пользователи прошедшие не сложную регистрацию
    Показать сообщения:    

    Заложники через торрент
    Скачать бесплатно Заложники
    Заложники скачать торрент
    Заложники смотреть онлайн
    Cкачать фильм Заложники бесплатно
    Заложники скачать торрент в хорошем качестве
    Заложники смотреть онлайн бесплатно в хорошем качестве


    Вы не можете начинать темы
    Вы не можете отвечать на сообщения
    Вы не можете редактировать свои сообщения
    Вы не можете удалять свои сообщения
    Вы не можете голосовать в опросах
    Вы не можете прикреплять файлы к сообщениям
    Вы можете скачивать файлы