новый адрес пиратбит piratbit
MEGA NEWS Получи личный уникальный адрес сайта и защити себя от блокировок. Внимание количество ограничено!!!

iTunes

1+1

iTunes

мы

iTunes

1

iTunes

Чернобыль

iTunes

Ральф против интернета

Лицензия

ПШазам

Лицензия

Игра престолов

Лицензия

30
pack

ВАЖНО

!!Акция!!

Alien_RageХит недели

RePack

Resident Evil 21

ИГРА 18+

pack

RePack

Metro:Exodus

!!Акция!!

Alien_Rage

RePack

fifa19

RePack

Assassins Creed: Odyssey

RePack

NEED FOR SPEED™ PAYBACK

3 сезон

9 сезон

Бесстыжие 9 сезон

Все сериалы

все сериалы на PB.wtf

RePack

FAR CRY 5
Ребята, катастрофически не хватает 1900р. для оплаты серверов за АВГУСТ (всвязи с блокировками трафик упал в 3 раза), 1-2р., выручайте.
  

Несколько слишком спокойных господ / Quelques messieurs trop tranquilles (Жорж Лотнер) [1973 г., Комедия, криминал, детектив, BDRip 720p, Профессиональный (многоголосый)] от ExKinoRay pb.wtf

Несколько слишком спокойных господ через торрент pb.wtf

Размер: 5.37 GB | Добавлен: 16 д. назад | Торрент скачан:5 раз
Скачать  

06-10-2019 05:21 Несколько слишком спокойных господ Скачать торрент  

Несколько слишком спокойных господ / Quelques messieurs trop tranquilles
Год выпуска: 1973
Страна: Франция
Жанр: Комедия, криминал, детектив
Продолжительность: 01:36:15
Перевод: Профессиональный (многоголосый) - ТК Россия
Субтитры: Русские, французские

Режиссер: Жорж Лотнер

Премьера в мире: 25 января 1973

rating

В ролях: Дани, Мишель Галабрю, Анри Гибе, Жан Лефевр, Андре Пусс, Бруно Прадаль, Поль Пребуа, Рене Сен-Сир, Чарльз Саутвуд, Миу-Миу

Описание: Чтобы спасти свою деревню от окончательного запустения, местные жители из кожи вон лезут, стараясь заманить туристов. Но на их беду, к ним в гости едут только бесшабашные хиппари, которые в конце концов надоедают горожанам своими выходками. Спокойные провинциалы, которых достала разгульная молодежь, выгоняют постояльцев из города. Но вскоре жителям деревни приходится объединиться с хиппи в поисках таинственных преступников...

Качество: BDRip 720p
Формат: MKV
Видео кодек: MPEG4
Аудио кодек: AC3
Видео: MPEG-4 AVC, 7000 Кбит/с, 1202x720, 24.000 кадра/сек
Аудио#1: Русский (AC3, 2 ch, 192 Кбит/с, 48 КГц)
Аудио#2: Французский (DTS, 2 ch, 768 Кбит/с, 48 КГц)
Релиз от:
Общее
Уникальный идентификатор : 229831264184099228274347111211293923733 (0xACE7E431CC37EE11ACAA14563142D995)
Полное имя : F:\ExRips\QuelquesMessieursTropTranquilles.1973.BDRip720p.ExKinoRay.mkv
Формат : Matroska
Версия формата : Version 2
Размер файла : 5,37 Гбайт
Продолжительность : 1 ч. 36 м.
Общий поток : 7994 Кбит/сек
Дата кодирования : UTC 2019-10-06 03:14:08
Программа кодирования : mkvmerge v7.8.0 ('River Man') 32bit built on Apr 3 2015 12:11:22
Библиотека кодирования : libebml v1.3.1 + libmatroska v1.4.2

Видео
Идентификатор : 1
Формат : AVC
Формат/Информация : Advanced Video Codec
Профиль формата : High@L4.1
Настройки формата : CABAC / 9 Ref Frames
Параметр CABAC формата : Да
Параметр RefFrames формата : 9 кадров
Идентификатор кодека : V_MPEG4/ISO/AVC
Продолжительность : 1 ч. 36 м.
Битрейт : 7000 Кбит/сек
Ширина : 1202 пикселя
Высота : 720 пикселей
Соотношение сторон : 5:3
Режим частоты кадров : Постоянный
Частота кадров : 24,000 кадра/сек
Цветовое пространство : YUV
Субдискретизация насыщенности : 4:2:0
Битовая глубина : 8 бит
Тип развёртки : Прогрессивная
Бит/(Пиксели*Кадры) : 0.337
Размер потока : 4,62 Гбайт (86%)
Библиотека кодирования : x264 core 152 r2851 ba24899
Настройки программы : cabac=1 / ref=9 / deblock=1:-3:-2 / analyse=0x3:0x113 / me=umh / subme=10 / psy=1 / psy_rd=1.00:0.10 / mixed_ref=1 / me_range=32 / chroma_me=1 / trellis=2 / 8x8dct=1 / cqm=0 / deadzone=21,11 / fast_pskip=0 / chroma_qp_offset=-3 / threads=6 / lookahead_threads=1 / sliced_threads=0 / nr=0 / decimate=0 / interlaced=0 / bluray_compat=0 / constrained_intra=0 / bframes=12 / b_pyramid=2 / b_adapt=2 / b_bias=0 / direct=3 / weightb=1 / open_gop=0 / weightp=2 / keyint=240 / keyint_min=24 / scenecut=40 / intra_refresh=0 / rc=2pass / mbtree=0 / bitrate=7000 / ratetol=1.0 / qcomp=0.60 / qpmin=0 / qpmax=69 / qpstep=4 / cplxblur=20.0 / qblur=0.5 / ip_ratio=1.40 / pb_ratio=1.30 / aq=3:1.00
Язык : English
Default : Да
Forced : Нет
Цветовой диапазон : Limited
Основные цвета : BT.709
Характеристики трансфера : BT.709
Коэффициенты матрицы : BT.709

Аудио #1
Идентификатор : 2
Формат : AC-3
Формат/Информация : Audio Coding 3
Коммерческое название : Dolby Digital
Идентификатор кодека : A_AC3
Продолжительность : 1 ч. 36 м.
Вид битрейта : Постоянный
Битрейт : 192 Кбит/сек
Каналы : 2 канала
Channel layout : L R
Частота : 48,0 КГц
Частота кадров : 31,250 кадров/сек (1536 SPF)
Битовая глубина : 16 бит
Метод сжатия : С потерями
Размер потока : 132 Мбайт (2%)
Язык : Russian
ServiceKind/String : Complete Main
Default : Да
Forced : Нет

Аудио #2
Идентификатор : 3
Формат : DTS
Формат/Информация : Digital Theater Systems
Идентификатор кодека : A_DTS
Продолжительность : 1 ч. 36 м.
Вид битрейта : Постоянный
Битрейт : 768 Кбит/сек
Каналы : 2 канала
Channel layout : L R
Частота : 48,0 КГц
Частота кадров : 93,750 кадра/сек (512 SPF)
Битовая глубина : 16 бит
Метод сжатия : С потерями
Размер потока : 529 Мбайт (10%)
Язык : French
Default : Нет
Forced : Нет

Текст #1
Идентификатор : 4
Формат : PGS
Режим смешивания : zlib
Идентификатор кодека : S_HDMV/PGS
Идентификатор кодека/Информация : Picture based subtitle format used on BDs/HD-DVDs
Язык : Russian
Default : Нет
Forced : Нет

Текст #2
Идентификатор : 5
Формат : PGS
Режим смешивания : zlib
Идентификатор кодека : S_HDMV/PGS
Идентификатор кодека/Информация : Picture based subtitle format used on BDs/HD-DVDs
Язык : French
Default : Нет
Forced : Нет

Меню
00:00:00.000 : en:
00:08:17.750 : en:
00:16:03.082 : en:
00:24:19.000 : en:
00:31:57.000 : en:
00:42:14.916 : en:
00:51:09.375 : en:
00:57:43.750 : en:
01:06:19.375 : en:
01:11:29.500 : en:
01:19:49.707 : en:
01:27:19.541 : en:
01:36:14.750 : en:

pb.wtf



Скачать Несколько слишком спокойных господ через торрент https://i69.fastpic.ru/big/2015/0810/60/8b49c451b868f50c2d5399e915fa8c60.jpg Скачать фильм Несколько слишком спокойных господ через торрент бесплантно в хорошем качестве Описание: Чтобы спасти свою деревню от окончательного запустения, местные жители из кожи вон лезут, стараясь заманить туристов. Но на их ... 5 10 1
Торрент: Зарегистрирован [2019-10-06 05:21] · скачан: 5 раз
Статус: √ проверено
Размер: 5.37 GB
Как cкачать? Как скачать Несколько слишком спокойных господ через торрент | qTorrent


>> Регистрируемся здесь <<






Отзывы и комментарии о схеме читаем и пишем здесь: ---> Отзывы и комментарии о схеме

Новые благодарочки в телеграм довольных пользователей:
скриншот   скриншот   скриншот   скриншот   скриншот
    Дорогой пользователь! Огромная просьба, поблагодарите релизера, оцените раздачу и оставьте свои комментарий, если Вы скачали Несколько слишком спокойных господ через торрент бесплатно! Внесите свою лепту в развитие PiratBit!
    Комментировать посты могут только пользователи прошедшие не сложную регистрацию
    Показать сообщения:    

    Несколько слишком спокойных господ через торрент
    Скачать бесплатно Несколько слишком спокойных господ
    Несколько слишком спокойных господ скачать торрент
    Несколько слишком спокойных господ смотреть онлайн
    Cкачать фильм Несколько слишком спокойных господ бесплатно
    Несколько слишком спокойных господ скачать торрент в хорошем качестве
    Несколько слишком спокойных господ смотреть онлайн бесплатно в хорошем качестве


    Вы не можете начинать темы
    Вы не можете отвечать на сообщения
    Вы не можете редактировать свои сообщения
    Вы не можете удалять свои сообщения
    Вы не можете голосовать в опросах
    Вы не можете прикреплять файлы к сообщениям
    Вы можете скачивать файлы