Ссылка на приватное зеркало нашего сайта всего за 1$. Внимание количество ограничено!!!

2 сезон

iTunes

1 сезон

1

iTunes

iTunes

iTunes

1 сезон

RePack

30

ИГРА 18+

pack

ВАЖНО

!!Акция!!

Alien_RageХит недели

RePack

MK11
pack

Забери бонус

RePack

jed

!!Акция!!

Alien_Rage

RePack

fifa19

RePack

Assassins Creed: Odyssey

RePack

NEED FOR SPEED™ PAYBACK

4 сезон

9 сезон

Бесстыжие 9 сезон

Все сериалы

все сериалы на PB.wtf

RePack

FAR CRY 5
  

Час счастья / Гроздья раздора / Happy Hour / Sour Grapes (Джон Де Белло / John De Bello) [1986, комедия, WEB-DL 1080p] [DVO] (НТВ+) + [AVO] (Антон Пронин) pb.wtf

Час счастья через торрент pb.wtf

Размер: 6.42 GB | Добавлен: 1 год назад | Торрент скачан:35 раз
Скачать  

06-10-2019 06:57 Час счастья Скачать торрент  

Час счастья / Гроздья раздора / Happy Hour / Sour Grapes

Страна: США
Жанр: комедия
Год выпуска: 1986
Продолжительность: 01:27:12

Перевод 1: Профессиональный (двухголосый закадровый) НТВ+
Перевод 2: Авторский (одноголосый закадровый) Антон Пронин
Субтитры: английские

Режиссер: Джон Де Белло / John De Bello

В ролях: Джим Пэррот, Ричард Джиллилэнд, Кэти Дайамант, Джеймс Ньюэлл, Херб Кронсберг, Деби Фарес, Эдди Дизен, Дебора Гейтс, Арни Миллер, Рич Литтл...

Описание: Во время эксперимента учёный-химик нечаянно открывает ингредиент, который, при добавлении в пиво… напрочь лишает людей возможности сопротивляться действию алкоголя. Прежде, чем к изобретателю приходит осознание своего открытия, международный шпион начинает охоту за ингредиентом.

Сэмпл: http://sendfile.su/1520211

Тип релиза: WEB-DL 1080p
Контейнер: MKV

Видео: 1920x1080 (16:9), 23.976 fps, AVC, ~10000 Kbps, 0.201 bits/pixel
Аудио 1: Russian, 48.0 KHz, AC3, 2 ch, 192 Kbps - НТВ+
Аудио 2: Russian, 48.0 KHz, AC3, 2 ch, 192 Kbps - Антон Пронин
Аудио 3: English, 48.0 KHz, AC3+, 2 ch, 224 Kbps

General
Unique ID : 33861106905205222284409002887808786797 (0x197969771ED3360278051924F6A3A16D)
Complete name : C:\Sour Grapes. WEB-DL 1080p.mkv
Format : Matroska
Format version : Version 4 / Version 2
File size : 6.42 GiB
Duration : 1 h 27 min
Overall bit rate : 10.5 Mb/s
Encoded date : UTC 2019-10-05 08:37:57
Writing application : mkvmerge v37.0.0 ('Leave It') 64-bit
Writing library : libebml v1.3.9 + libmatroska v1.5.2

Video
ID : 1
Format : AVC
Format/Info : Advanced Video Codec
Format profile : High@L4
Format settings : CABAC / 4 Ref Frames
Format settings, CABAC : Yes
Format settings, ReFrames : 4 frames
Format settings, GOP : M=4, N=48
Codec ID : V_MPEG4/ISO/AVC
Duration : 1 h 27 min
Bit rate mode : Constant
Bit rate : 10 000 kb/s
Width : 1 920 pixels
Height : 1 080 pixels
Display aspect ratio : 16:9
Frame rate mode : Constant
Frame rate : 23.976 (24000/1001) FPS
Color space : YUV
Chroma subsampling : 4:2:0
Bit depth : 8 bits
Scan type : Progressive
Bits/(Pixel*Frame) : 0.201
Stream size : 6.05 GiB (94%)
Language : English
Default : Yes
Forced : No
Color range : Limited
Color primaries : BT.709
Transfer characteristics : BT.709
Matrix coefficients : BT.709

Audio #1
ID : 2
Format : AC-3
Format/Info : Audio Coding 3
Commercial name : Dolby Digital
Codec ID : A_AC3
Duration : 1 h 27 min
Bit rate mode : Constant
Bit rate : 192 kb/s
Channel(s) : 2 channels
Channel layout : L R
Sampling rate : 48.0 kHz
Frame rate : 31.250 FPS (1536 SPF)
Bit depth : 16 bits
Compression mode : Lossy
Stream size : 120 MiB (2%)
Title : НТВ+
Language : Russian
Service kind : Complete Main
Default : Yes
Forced : No

Audio #2
ID : 3
Format : AC-3
Format/Info : Audio Coding 3
Commercial name : Dolby Digital
Codec ID : A_AC3
Duration : 1 h 27 min
Bit rate mode : Constant
Bit rate : 192 kb/s
Channel(s) : 2 channels
Channel layout : L R
Sampling rate : 48.0 kHz
Frame rate : 31.250 FPS (1536 SPF)
Bit depth : 16 bits
Compression mode : Lossy
Stream size : 120 MiB (2%)
Title : Антон Пронин
Language : Russian
Service kind : Complete Main
Default : No
Forced : No

Audio #3
ID : 4
Format : E-AC-3
Format/Info : Enhanced AC-3
Commercial name : Dolby Digital Plus
Codec ID : A_EAC3
Duration : 1 h 27 min
Bit rate mode : Constant
Bit rate : 224 kb/s
Channel(s) : 2 channels
Channel layout : L R
Sampling rate : 48.0 kHz
Frame rate : 31.250 FPS (1536 SPF)
Compression mode : Lossy
Stream size : 140 MiB (2%)
Language : English
Service kind : Complete Main
Default : No
Forced : No

Text #1
ID : 5
Format : UTF-8
Codec ID : S_TEXT/UTF8
Codec ID/Info : UTF-8 Plain Text
Duration : 1 h 24 min
Bit rate : 71 b/s
Count of elements : 1645
Stream size : 44.0 KiB (0%)
Language : English
Default : No
Forced : No

Text #2
ID : 6
Format : UTF-8
Codec ID : S_TEXT/UTF8
Codec ID/Info : UTF-8 Plain Text
Duration : 1 h 24 min
Bit rate : 72 b/s
Count of elements : 1701
Stream size : 44.8 KiB (0%)
Title : SDH
Language : English
Default : No
Forced : No
скриншот  скриншот  скриншот  
pb.wtf



Скачать Час счастья через торрент https://i3.imageban.ru/out/2019/10/06/ee8990d636434edd159c9c1e5eddfc20.png Скачать фильм Час счастья через торрент бесплантно в хорошем качестве Описание: Во время эксперимента учёный-химик нечаянно открывает ингредиент, который, при добавлении в пиво… напрочь лишает людей ... 10 10 3
Торрент: Зарегистрирован [2019-10-06 06:57] · скачан: 35 раз
Статус: √ проверено
Размер: 6.42 GB
Как cкачать? Как скачать Час счастья через торрент | qTorrent

28-11-2019 20:33  

Отключить всю рекламу на сайте

    Дорогой пользователь! Огромная просьба, поблагодарите релизера, оцените раздачу и оставьте свои комментарий, если Вы скачали Час счастья через торрент бесплатно! Внесите свою лепту в развитие PiratBit!
    Комментировать посты могут только пользователи прошедшие не сложную регистрацию
    Показать сообщения:    

    Час счастья через торрент
    Скачать бесплатно Час счастья
    Час счастья скачать торрент
    Час счастья смотреть онлайн
    Cкачать фильм Час счастья бесплатно
    Час счастья скачать торрент в хорошем качестве
    Час счастья смотреть онлайн бесплатно в хорошем качестве


    Вы не можете начинать темы
    Вы не можете отвечать на сообщения
    Вы не можете редактировать свои сообщения
    Вы не можете удалять свои сообщения
    Вы не можете голосовать в опросах
    Вы не можете прикреплять файлы к сообщениям
    Вы можете скачивать файлы