новый адрес
Мега распродажа FORZA HORIZON 4 ULTIMATE+ВСЕ DLC+ОНЛАЙН всего за 499р. 349 руб. (супер цена). Внимание количество ограничено!!!

iTunes

1+1

iTunes

мы

iTunes

1

iTunes

Чернобыль

iTunes

Ральф против интернета

Лицензия

ПШазам

Лицензия

Игра престолов

Лицензия

30
pack

ВАЖНО

!!Акция!!

Alien_RageХит недели

RePack

Resident Evil 21

ИГРА 18+

pack

RePack

Metro:Exodus

!!Акция!!

Alien_Rage

RePack

fifa19

RePack

Assassins Creed: Odyssey

RePack

NEED FOR SPEED™ PAYBACK

3 сезон

9 сезон

Бесстыжие 9 сезон

Все сериалы

все сериалы на PB.wtf

RePack

FAR CRY 5
Ребята, катастрофически не хватает 1900р. для оплаты серверов за Октябрь (всвязи с блокировками трафик упал в 3 раза), 1-2р., выручайте.
  

Никаких проблем! / Pas de problème! (Жорж Лотнер) [1975, комедия, BDRip (AVC) by msltel] DUB, MVO pb.wtf

Никаких проблем! через торрент pb.wtf

Раздают: 1 [ 0 KB/s ]
Размер: 2.68 GB | Добавлен: 1 мес. 11 д. назад | Торрент скачан:4 раза
Скачать  

06-10-2019 09:58 Никаких проблем! Скачать торрент  

Название: Никаких проблем!
Оригинальное название: Pas de problème!
Год выпуска: 1975
Страна: Франция
Жанр: комедия
Продолжительность: 01:43:04
Перевод: дублированный, профессиональный многоголосый

Режиссер: Жорж Лотнер
В ролях: Миу-Миу, Бернар Менез, Анри Гибе, Жан Лефевр, Анни Дюпре, Паула Мур, Рене Сен-Сир, Мария Паком, Патрик Девэр, Лионель Витран

О фильме: Фильм начинается необычно: с энергичной и долгой автопогони, в результате которой преследуемый и израненный тип врывается в первую попавшуюся квартиру и умирает на глазах изумленной хозяйки. Та, будучи не вполне в ладах с законом, решает избавиться от трупа, но... дверь захлопывается в самый неподходящий момент. Анита в поисках помощи цепляет на дискотеке обеспеченного и легкомысленного юнца по имени Жан-Пьер, который и не догадывается какие сюрпризы ждут его впереди... Уложив труп в багажник папиного ДээСа, парочка намеревается его выкинуть где-нибудь подальше, но внезапно объявившемуся отцу срочно нужна его тачка и... труп уезжает с ничего не подозревающим родителем бездельника. Анита и Жан-Пьер обращаются к другу Аниты, автомеханику с собственным хотродом и аферистом в душе по имени Даниэль, и теперь уже троица начинает погоню за укатившим трупом...



Качество: BDRip (AVC)
Формат: MKV
Видео: MPEG-4 AVC, 3050 Кбит/с, 956x576
Аудио 1: русский, AC3, 256 kbps, 2 ch, 48 kHz [дублированный, с добавлением MVO]
Аудио 2: русский, AC3, 224 kbps, 2 ch, 48 kHz [закадровый многоголосый]
Аудио 3: французский, AC3, 192 kbps, 2 ch, 48 kHz [оригинал]
Субтитры 1: русские
Субтитры 2: французские
Главы/чаптеры
Общее
Уникальный идентификатор : 203976110324599312018608067902006722539 (0x99745EB08BC602F7B92D2BE2F1757FEB)
Полное имя : D:\Video\Никаких проблем.1975.BDRip (AVC) by msltel.mkv
Формат : Matroska
Версия формата : Version 4
Размер файла : 2,68 Гбайт
Продолжительность : 1 ч. 43 м.
Общий поток : 3724 Кбит/сек
Название фильма : Rip by msltel
Дата кодирования : UTC 2019-10-06 06:31:15
Программа кодирования : mkvmerge v8.2.0 ('World of Adventure') 64bit
Библиотека кодирования : libebml v1.3.1 + libmatroska v1.4.2

Видео
Идентификатор : 1
Формат : AVC
Формат/Информация : Advanced Video Codec
Профиль формата : High@L4.1
Настройки формата : CABAC / 9 Ref Frames
Параметр CABAC формата : Да
Параметр RefFrames формата : 9 кадров
Идентификатор кодека : V_MPEG4/ISO/AVC
Продолжительность : 1 ч. 43 м.
Битрейт : 3050 Кбит/сек
Ширина : 956 пикселей
Высота : 576 пикселей
Соотношение сторон : 5:3
Режим частоты кадров : Постоянный
Частота кадров : 24,000 кадра/сек
Цветовое пространство : YUV
Субдискретизация насыщенности : 4:2:0
Битовая глубина : 8 бит
Тип развёртки : Прогрессивная
Бит/(Пиксели*Кадры) : 0.231
Размер потока : 2,20 Гбайт (82%)
Библиотека кодирования : x264 core 157 r2935 545de2f
Настройки программы : cabac=1 / ref=9 / deblock=1:-2:-2 / analyse=0x3:0x113 / me=umh / subme=11 / psy=1 / psy_rd=1.00:0.15 / mixed_ref=1 / me_range=32 / chroma_me=1 / trellis=2 / 8x8dct=1 / cqm=0 / deadzone=21,11 / fast_pskip=0 / chroma_qp_offset=-3 / threads=6 / lookahead_threads=1 / sliced_threads=0 / nr=0 / decimate=1 / interlaced=0 / bluray_compat=0 / constrained_intra=0 / bframes=6 / b_pyramid=2 / b_adapt=2 / b_bias=0 / direct=1 / weightb=1 / open_gop=0 / weightp=2 / keyint=230 / keyint_min=23 / scenecut=40 / intra_refresh=0 / rc_lookahead=40 / rc=crf / mbtree=1 / crf=17.0 / qcomp=0.60 / qpmin=0 / qpmax=69 / qpstep=4 / vbv_maxrate=50000 / vbv_bufsize=62500 / crf_max=0.0 / nal_hrd=none / filler=0 / ip_ratio=1.40 / aq=1:1.00
Язык : French
Default : Да
Forced : Нет

Аудио #1
Идентификатор : 2
Формат : AC-3
Формат/Информация : Audio Coding 3
Коммерческое название : Dolby Digital
Идентификатор кодека : A_AC3
Продолжительность : 1 ч. 43 м.
Вид битрейта : Постоянный
Битрейт : 256 Кбит/сек
Каналы : 2 канала
ChannelLayout : L R
Частота : 48,0 КГц
Частота кадров : 31,250 кадров/сек (1536 SPF)
Метод сжатия : С потерями
Размер потока : 189 Мбайт (7%)
Заголовок : DUB
Язык : Russian
ServiceKind/String : Complete Main
Default : Да
Forced : Нет

Аудио #2
Идентификатор : 3
Формат : AC-3
Формат/Информация : Audio Coding 3
Коммерческое название : Dolby Digital
Идентификатор кодека : A_AC3
Продолжительность : 1 ч. 43 м.
Вид битрейта : Постоянный
Битрейт : 224 Кбит/сек
Каналы : 2 канала
ChannelLayout : L R
Частота : 48,0 КГц
Частота кадров : 31,250 кадров/сек (1536 SPF)
Метод сжатия : С потерями
Размер потока : 165 Мбайт (6%)
Заголовок : MVO
Язык : Russian
ServiceKind/String : Complete Main
Default : Нет
Forced : Нет

Аудио #3
Идентификатор : 4
Формат : AC-3
Формат/Информация : Audio Coding 3
Коммерческое название : Dolby Digital
Идентификатор кодека : A_AC3
Продолжительность : 1 ч. 43 м.
Вид битрейта : Постоянный
Битрейт : 192 Кбит/сек
Каналы : 2 канала
ChannelLayout : L R
Частота : 48,0 КГц
Частота кадров : 31,250 кадров/сек (1536 SPF)
Метод сжатия : С потерями
Размер потока : 142 Мбайт (5%)
Заголовок : original
Язык : French
ServiceKind/String : Complete Main
Default : Нет
Forced : Нет

Текст #1
Идентификатор : 5
Формат : UTF-8
Идентификатор кодека : S_TEXT/UTF8
Идентификатор кодека/Информация : UTF-8 Plain Text
Продолжительность : 1 ч. 39 м.
Битрейт : 87 бит/сек
ElementCount : 1394
Размер потока : 64,0 Кбайт (0%)
Заголовок : русские
Язык : Russian
Default : Нет
Forced : Нет

Текст #2
Идентификатор : 6
Формат : UTF-8
Идентификатор кодека : S_TEXT/UTF8
Идентификатор кодека/Информация : UTF-8 Plain Text
Продолжительность : 1 ч. 42 м.
Битрейт : 53 бит/сек
ElementCount : 1381
Размер потока : 40,5 Кбайт (0%)
Заголовок : французские
Язык : French
Default : Нет
Forced : Нет

Меню
00:00:00.000 : en:00:00:00.000
00:12:02.542 : en:00:12:02.542
00:21:38.750 : en:00:21:38.750
00:30:04.917 : en:00:30:04.917
00:39:17.833 : en:00:39:17.833
00:46:55.917 : en:00:46:55.917
00:57:12.000 : en:00:57:12.000
01:06:42.000 : en:01:06:42.000
01:14:02.125 : en:01:14:02.125
01:21:59.792 : en:01:21:59.792
01:30:39.042 : en:01:30:39.042
01:35:53.000 : en:01:35:53.000
pb.wtf



Скачать Никаких проблем! через торрент https://d.radikal.ru/d10/1910/06/72c59693bd30.jpg Скачать фильм Никаких проблем! через торрент бесплантно в хорошем качестве О фильме: Фильм начинается необычно: с энергичной и долгой автопогони, в результате которой преследуемый и израненный врывается в ... 10 10 1
Торрент: Зарегистрирован [2019-10-06 09:58] · скачан: 4 раз
Статус: √ проверено
Размер: 2.68 GB
Как cкачать? Как скачать Никаких проблем! через торрент | qTorrent

% Раздел Тема Автор DL S | L
Классика зарубежного кино [ 11.49 GB ] Никаких проблем! / Pas de problème! [1975 BDRip 1080p by msltel] DUB MVO msltel Скачать
2 | 0
Классика зарубежного кино [ 4.4 GB ] Никаких проблем! / Pas de problème! [1975 BDRip 720p by msltel] DUB MVO msltel Скачать
2 | 0


>> Регистрируемся здесь <<






Отзывы и комментарии о схеме читаем и пишем здесь: ---> Отзывы и комментарии о схеме

Новые благодарочки в телеграм довольных пользователей:
скриншот   скриншот   скриншот   скриншот   скриншот
    Дорогой пользователь! Огромная просьба, поблагодарите релизера, оцените раздачу и оставьте свои комментарий, если Вы скачали Никаких проблем! через торрент бесплатно! Внесите свою лепту в развитие PiratBit!
    Комментировать посты могут только пользователи прошедшие не сложную регистрацию
    Показать сообщения:    

    Никаких проблем! через торрент
    Скачать бесплатно Никаких проблем!
    Никаких проблем! скачать торрент
    Никаких проблем! смотреть онлайн
    Cкачать фильм Никаких проблем! бесплатно
    Никаких проблем! скачать торрент в хорошем качестве
    Никаких проблем! смотреть онлайн бесплатно в хорошем качестве


    Вы не можете начинать темы
    Вы не можете отвечать на сообщения
    Вы не можете редактировать свои сообщения
    Вы не можете удалять свои сообщения
    Вы не можете голосовать в опросах
    Вы не можете прикреплять файлы к сообщениям
    Вы можете скачивать файлы