новый адрес пиратбит piratbit
Мега распродажа FORZA HORIZON 4 ULTIMATE+ВСЕ DLC+ОНЛАЙН всего за 499р. 349 руб. (супер цена). Внимание количество ограничено!!!

iTunes

1+1

iTunes

мы

iTunes

1

iTunes

Чернобыль

iTunes

Ральф против интернета

Лицензия

ПШазам

Лицензия

Игра престолов

Лицензия

30
pack

ВАЖНО

!!Акция!!

Alien_RageХит недели

RePack

Resident Evil 21

ИГРА 18+

pack

RePack

Metro:Exodus

!!Акция!!

Alien_Rage

RePack

fifa19

RePack

Assassins Creed: Odyssey

RePack

NEED FOR SPEED™ PAYBACK

3 сезон

9 сезон

Бесстыжие 9 сезон

Все сериалы

все сериалы на PB.wtf

RePack

FAR CRY 5
Ребята, катастрофически не хватает 1900р. для оплаты серверов за Октябрь (всвязи с блокировками трафик упал в 3 раза), 1-2р., выручайте.
  

Али, рули! / Stuber (Майкл Даус) [2019, боевик, триллер, комедия, криминал, UHD BDRip 2160p] Дубляж (rus, ukr) [iTunes] pb.wtf

Али, рули! через торрент pb.wtf

Раздают: 5 [ 0.3 KB/s ]
Размер: 11.47 GB | Добавлен: 1 мес. 7 д. назад | Торрент скачан:212 раз
Скачать  

06-10-2019 15:36 Али, рули! Скачать торрент  

Али, рули! / Stuber««Поездка на пять звёзд»»

Год выпуска: 2019
Страна: США
Жанр: боевик, триллер, комедия, криминал
Продолжительность: 01:33:24
Перевод: Дублированный | iTunes
Субтитры: Русские (Forced, full), украинские (Forced), английские
Режиссер: Майкл Даус
В ролях:

Кумэйл Нанджиани (Stu), Дэйв Батиста (Vic Manning), Мира Сорвино (Angie McHenry), Натали Моралес (Nicole), Ико Уайс (Oka Tedjo), Бетти Гилпин (Becca), Карен Гиллан (Sara Morris), Джимми Татро (Richie Sandusky), Стив Хоуи (Felix), Рене Моран (Amo Cortez), Эймин Джозеф (Leon), Кристин Хорн (Upscale Hotel Manager)
Описание:
Скромный водитель Uber по имени Стю подбирает пассажира, который оказывается полицейским, идущим по следу жестокого убийцы. Таксист даже представить не мог, что теперь его ждет мучительное испытание, в ходе которого он будет отчаянно пытаться сохранить здравомыслие, жизнь и пятизвездочный рейтинг в приложении.
Рейтинг:

MPAA: R - Лицам до 17 лет обязательно присутствие взрослого
Качество: UHD BDRip 2160p
Формат: MKV
Видео: HEVC HDR, 16.4 Mбит/с, 3840x1608, 23.976 кадр/с, 10 Бит
Аудио #01: 48 kHz, AC3, 5.1, 384 Kbps | iTunes | RUS |
Аудио #02: 48 kHz, AC3, 2.0, 160 Kbps | iTunes | UKR |
Аудио #03: 48 kHz, AC3, 5.1, 640 Kbps | Оригинал | ENG |
Навигация по главам: есть

Общее
Уникальный идентификатор : 182388249124835504308323713507040342719 (0x8936B2F4E693A56CBCF8FF60A672B2BF)
Полное имя : F:\Stuber.2019.2160p.BDRip.x265.10bit.HDR.Master_5.mkv
Формат : Matroska
Версия формата : Version 4
Размер файла : 11,5 Гбайт
Продолжительность : 1 ч. 33 м.
Общий поток : 17,6 Мбит/сек
Название фильма : Stuber.2019.2160p.BDRip.x265.10bit.HDR.Master_5
Дата кодирования : UTC 2019-10-06 13:57:32
Программа кодирования : mkvmerge v7.9.0 ('Birds') 64bit
Библиотека кодирования : libebml v1.3.1 + libmatroska v1.4.2

Видео
Идентификатор : 1
Формат : HEVC
Формат/Информация : High Efficiency Video Coding
Коммерческое название : HDR10
Профиль формата : Main 10@L5.1@High
Идентификатор кодека : V_MPEGH/ISO/HEVC
Продолжительность : 1 ч. 33 м.
Битрейт : 16,4 Мбит/сек
Ширина : 3840 пикселей
Высота : 1608 пикселей
Соотношение сторон : 2,40:1
Режим частоты кадров : Постоянный
Частота кадров : 23,976 (24000/1001) кадра/сек
Цветовое пространство : YUV
Субдискретизация насыщенности : 4:2:0 (Type 2)
Битовая глубина : 10 бит
Бит/(Пиксели*Кадры) : 0.111
Размер потока : 10,7 Гбайт (93%)
Заголовок : Stuber.2019.2160p.BDRip.x265.10bit.HDR.Master_5
Библиотека кодирования : x265 3.1+20-913823aa15cd:[Windows][GCC 6.3.0][64 bit] 10bit
Настройки программы : cpuid=1111039 / frame-threads=4 / numa-pools=20 / wpp / no-pmode / no-pme / no-psnr / no-ssim / log-level=2 / input-csp=1 / input-res=3840x1608 / interlace=0 / total-frames=134363 / level-idc=51 / high-tier=1 / uhd-bd=0 / ref=4 / no-allow-non-conformance / repeat-headers / annexb / aud / hrd / info / hash=0 / no-temporal-layers / no-open-gop / min-keyint=1 / keyint=24 / gop-lookahead=0 / bframes=4 / b-adapt=2 / b-pyramid / bframe-bias=0 / rc-lookahead=25 / lookahead-slices=4 / scenecut=40 / radl=0 / no-splice / no-intra-refresh / ctu=64 / min-cu-size=8 / rect / no-amp / max-tu-size=32 / tu-inter-depth=1 / tu-intra-depth=1 / limit-tu=0 / rdoq-level=2 / dynamic-rd=0.00 / no-ssim-rd / signhide / no-tskip / nr-intra=0 / nr-inter=0 / no-constrained-intra / no-strong-intra-smoothing / max-merge=3 / limit-refs=3 / limit-modes / me=3 / subme=3 / merange=57 / temporal-mvp / no-hme / weightp / no-weightb / no-analyze-src-pics / deblock=-3:-3 / no-sao / no-sao-non-deblock / rd=4 / selective-sao=0 / no-early-skip / rskip / no-fast-intra / no-tskip-fast / no-cu-lossless / no-b-intra / no-splitrd-skip / rdpenalty=0 / psy-rd=2.00 / psy-rdoq=1.00 / no-rd-refine / no-lossless / cbqpoffs=0 / crqpoffs=0 / rc=crf / crf=17.0 / qcomp=0.60 / qpstep=4 / stats-write=0 / stats-read=0 / vbv-maxrate=160000 / vbv-bufsize=160000 / vbv-init=0.9 / crf-max=0.0 / crf-min=0.0 / ipratio=1.40 / pbratio=1.30 / aq-mode=1 / aq-strength=1.00 / cutree / zone-count=0 / no-strict-cbr / qg-size=32 / no-rc-grain / qpmax=69 / qpmin=0 / no-const-vbv / sar=1 / overscan=0 / videoformat=5 / range=0 / colorprim=9 / transfer=16 / colormatrix=9 / chromaloc=1 / chromaloc-top=2 / chromaloc-bottom=2 / display-window=0 / master-display=G(13250,34500)B(7500,3000)R(34000,16000)WP(15635,16450)L(10000000,50) / cll=0,0 / min-luma=0 / max-luma=1023 / log2-max-poc-lsb=8 / vui-timing-info / vui-hrd-info / slices=1 / no-opt-qp-pps / no-opt-ref-list-length-pps / no-multi-pass-opt-rps / scenecut-bias=0.05 / no-opt-cu-delta-qp / no-aq-motion / hdr / hdr-opt / no-dhdr10-opt / no-idr-recovery-sei / analysis-reuse-level=5 / scale-factor=0 / refine-intra=0 / refine-inter=0 / refine-mv=1 / refine-ctu-distortion=0 / no-limit-sao / ctu-info=0 / no-lowpass-dct / refine-analysis-type=0 / copy-pic=1 / max-ausize-factor=1.0 / no-dynamic-refine / no-single-sei / no-hevc-aq / no-svt / no-field / qp-adaptation-range=1.00
Default : Да
Forced : Нет
Цветовой диапазон : Limited
Основные цвета : BT.2020
Характеристики трансфера : PQ
Коэффициенты матрицы : BT.2020 non-constant
MasteringDisplay_ColorPrimaries : Display P3
MasteringDisplay_Luminance : min: 0.0050 cd/m2, max: 1000 cd/m2

Аудио #1
Идентификатор : 2
Формат : AC-3
Формат/Информация : Audio Coding 3
Коммерческое название : Dolby Digital
Идентификатор кодека : A_AC3
Продолжительность : 1 ч. 33 м.
Вид битрейта : Постоянный
Битрейт : 384 Кбит/сек
Каналы : 6 каналов
Channel layout : L R C LFE Ls Rs
Частота : 48,0 КГц
Частота кадров : 31,250 кадров/сек (1536 SPF)
Битовая глубина : 16 бит
Метод сжатия : С потерями
Размер потока : 256 Мбайт (2%)
Заголовок : iTunes
Язык : Russian
ServiceKind/String : Complete Main
Default : Да
Forced : Да

Аудио #2
Идентификатор : 3
Формат : AC-3
Формат/Информация : Audio Coding 3
Коммерческое название : Dolby Digital
Идентификатор кодека : A_AC3
Продолжительность : 1 ч. 33 м.
Вид битрейта : Постоянный
Битрейт : 160 Кбит/сек
Каналы : 2 канала
Channel layout : L R
Частота : 48,0 КГц
Частота кадров : 31,250 кадров/сек (1536 SPF)
Битовая глубина : 16 бит
Метод сжатия : С потерями
Размер потока : 107 Мбайт (1%)
Заголовок : iTunes
Язык : Ukrainian
ServiceKind/String : Complete Main
Default : Нет
Forced : Нет

Аудио #3
Идентификатор : 4
Формат : AC-3
Формат/Информация : Audio Coding 3
Коммерческое название : Dolby Digital
Идентификатор кодека : A_AC3
Продолжительность : 1 ч. 33 м.
Вид битрейта : Постоянный
Битрейт : 640 Кбит/сек
Каналы : 6 каналов
Channel layout : L R C LFE Ls Rs
Частота : 48,0 КГц
Частота кадров : 31,250 кадров/сек (1536 SPF)
Битовая глубина : 16 бит
Метод сжатия : С потерями
Задержка видео : 27 мс.
Размер потока : 428 Мбайт (4%)
Заголовок : Original
Язык : English
ServiceKind/String : Complete Main
Default : Нет
Forced : Нет

Текст #1
Идентификатор : 5
Формат : UTF-8
Идентификатор кодека : S_TEXT/UTF8
Идентификатор кодека/Информация : UTF-8 Plain Text
Продолжительность : 1 ч. 27 м.
Битрейт : 1 бит/сек
ElementCount : 24
Размер потока : 876 байт (0%)
Заголовок : Forced
Язык : Russian
Default : Да
Forced : Да

Текст #2
Идентификатор : 6
Формат : UTF-8
Идентификатор кодека : S_TEXT/UTF8
Идентификатор кодека/Информация : UTF-8 Plain Text
Продолжительность : 1 ч. 32 м.
Битрейт : 114 бит/сек
ElementCount : 1819
Размер потока : 77,4 Кбайт (0%)
Заголовок : Full
Язык : Russian
Default : Нет
Forced : Нет

Текст #3
Идентификатор : 7
Формат : UTF-8
Идентификатор кодека : S_TEXT/UTF8
Идентификатор кодека/Информация : UTF-8 Plain Text
Продолжительность : 1 ч. 27 м.
Битрейт : 1 бит/сек
ElementCount : 20
Размер потока : 725 байт (0%)
Заголовок : Forced
Язык : Ukrainian
Default : Нет
Forced : Нет

Текст #4
Идентификатор : 8
Формат : UTF-8
Идентификатор кодека : S_TEXT/UTF8
Идентификатор кодека/Информация : UTF-8 Plain Text
Продолжительность : 1 ч. 26 м.
Битрейт : 83 бит/сек
ElementCount : 1795
Размер потока : 52,9 Кбайт (0%)
Заголовок : Full
Язык : English
Default : Нет
Forced : Нет

Меню
00:00:00.000 : en:Chapter 01
00:05:52.435 : en:Chapter 02
00:09:57.222 : en:Chapter 03
00:14:14.854 : en:Chapter 04
00:17:30.675 : en:Chapter 05
00:19:46.310 : en:Chapter 06
00:22:40.276 : en:Chapter 07
00:27:33.402 : en:Chapter 08
00:31:30.889 : en:Chapter 09
00:33:19.247 : en:Chapter 10
00:35:39.888 : en:Chapter 11
00:40:13.036 : en:Chapter 12
00:45:05.202 : en:Chapter 13
00:49:10.114 : en:Chapter 14
00:52:36.987 : en:Chapter 15
00:56:46.111 : en:Chapter 16
01:01:54.252 : en:Chapter 17
01:05:43.648 : en:Chapter 18
01:08:37.196 : en:Chapter 19
01:13:31.157 : en:Chapter 20
01:16:44.517 : en:Chapter 21
01:19:07.534 : en:Chapter 22
01:23:54.780 : en:Chapter 23
01:27:49.598 : en:Chapter 24
pb.wtf



Скачать Али, рули! через торрент https://b.radikal.ru/b40/1910/ad/d7ee54c84dda.png Скачать фильм Али, рули! через торрент бесплантно в хорошем качестве Описание: Скромный водитель Uber по имени Стю подбирает пассажира, который оказывается полицейским, идущим по следу жестокого убийцы. ... 9.3 10 15
Торрент: Зарегистрирован [2019-10-06 15:36] · скачан: 212 раз
Статус: √ проверено
Размер: 11.47 GB
Как cкачать? Как скачать Али, рули! через торрент | qTorrent

% Раздел Тема Автор DL S | L
Фильмы 2019 [DVDrip, WEB-DLRip, HDrip] (DUB, MVO) [ 1.42 GB ] Али рули! / Stuber [2019 BDRip] - Twi7ter Скачать
226 | 15
Фильмы [HD 720p, 1080p] (Хороший звук DUB, MVO) [ 7.68 GB ] Али рули! / Stuber [2019 UHD BDRip 1080p] DUB bober100 Скачать
17 | 0
Фильмы (WEB-DL 720p, 1080p) [ 2.61 GB ] Али рули! / Stuber [2019 WEB-DL 720p] bober100 Скачать
41 | 0
Фильмы 2019 [DVDrip, WEB-DLRip, HDrip] (DUB, MVO) [ 1.73 GB ] Али рули! / Stuber [2019 BDRip-AVC] bober100 Скачать
10 | 0
Фильмы [HD 720p, 1080p] (Хороший звук DUB, MVO) [ 3.95 GB ] Али рули! / Stuber [2019 BDRip 720p] DUB bober100 Скачать
15 | 0
Фильмы 2019 [DVDrip, WEB-DLRip, HDrip] (DUB, MVO) [ 1.42 GB ] Али рули! / Stuber [2019 BDRip] DUB [iTuens] bober100 Скачать
6 | 0
Фильмы (Blu-ray, BD-Remux, HDDVD) [ 23.03 GB ] Али рули! / Stuber [2019 BD Remux 1080p] DUB bober100 Скачать
4 | 0


>> Регистрируемся здесь <<






Отзывы и комментарии о схеме читаем и пишем здесь: ---> Отзывы и комментарии о схеме

Новые благодарочки в телеграм довольных пользователей:
скриншот   скриншот   скриншот   скриншот   скриншот

07-10-2019 19:53 Али, рули! Скачать торрент  

Спасибо)pb.wtf



    Дорогой пользователь! Огромная просьба, поблагодарите релизера, оцените раздачу и оставьте свои комментарий, если Вы скачали Али, рули! через торрент бесплатно! Внесите свою лепту в развитие PiratBit!
    Комментировать посты могут только пользователи прошедшие не сложную регистрацию
    Показать сообщения:    

    Али, рули! через торрент
    Скачать бесплатно Али, рули!
    Али, рули! скачать торрент
    Али, рули! смотреть онлайн
    Cкачать фильм Али, рули! бесплатно
    Али, рули! скачать торрент в хорошем качестве
    Али, рули! смотреть онлайн бесплатно в хорошем качестве


    Вы не можете начинать темы
    Вы не можете отвечать на сообщения
    Вы не можете редактировать свои сообщения
    Вы не можете удалять свои сообщения
    Вы не можете голосовать в опросах
    Вы не можете прикреплять файлы к сообщениям
    Вы можете скачивать файлы