2 сезон

iTunes

MVO

1

2 сезон

iTunes

iTunes

1 сезон

RePack

30

Новинка

ВАЖНО

ИГРА 18+

pack

RePack

MK11
pack

Легкие деньги

RePack

jed

RePack

fifa19

RePack

RDR2

RePack

NEED FOR SPEED™ PAYBACK

4 сезон

9 сезон

Бесстыжие 9 сезон

Все сериалы

все сериалы на PB.wtf

RePack

FAR CRY 5

Anonymous, добрый вечер, мы не успеваем собрать деньги на оплату серверов за декабрь и январь, помогите нам пожалуйста в это трудное время. В качестве благодарности мы отключим Вам всю рекламу на сайте (укажите свой ник в строку Ваше имя)!

×
  
Magnet ссылка

Снегоуборщик / Cold Pursuit (Ханс Петтер Муланд) [2019, боевик, триллер, драма, UHD BDRemux 2160p] [Dolby Vision TV] DUB [Лицензия] pb.wtf

Снегоуборщик через торрент pb.wtf

Размер: 59.15 GB | Добавлен: 1 год 3 мес. назад | Торрент скачан:10 раз
Скачать  

06-10-2019 23:54 Снегоуборщик Скачать торрент  

Снегоуборщик / Cold Pursuit«Он убирает снег и… наркодилеров»
Год выпуска: 2019
Страна: Великобритания, Норвегия, Канада, США
Жанр: боевик, триллер, драма
Продолжительность: 01:59:00
Перевод: Дублированный | Лицензия
Субтитры: отсутствуют

Режиссер: Ханс Петтер Муланд

rating

В ролях:

Лиам Нисон (Nels Coxman), Лора Дерн (Grace Coxman), Эмми Россам (Kim Dash), Том Бейтман (Trevor «Viking» Calcote), Уильям Форсайт (Brock), Джулия Джонс (Aya), Майкл Нисон (Kyle Coxman), Майкл Эклунд (Speedo), Брэдли Страйкер (Limbo), Уэсли МакИннес (Dante), Доменик Ломбардоззи (Mustang), Николас Холмс (Ryan)
Описание: Мистер Коксман - примерный семьянин и уважаемый гражданин, размеренная жизнь которого заканчивается, когда наркоторговцы убивают его сына. В поисках справедливости он с ледяным хладнокровием начинает изощренно убирать бандитов одного за другим.

Качество: UHD BDRemux 2160p | Dolby Vision TV
Формат: MP4

Видео: HEVC HDR, 62 Mбит/с, 3840x2160, 23.976 fps
Аудио#1: 48 kHz, AC3, 5.1, 640 Kbps | Лицензия | RUS |
Аудио#2: 48 kHz, AC3, 5.1, 640 Kbps | Оригинал | ENG |
Аудио#3: 48 kHz, AC3, 2.0, 192 Kbps | Оригинал | ENG |
Данный вид релизов (контейнер MP4) предназначен для встроенного в ТВ (соответственно, с поддержкой DV) плеер.
Т.Е. Можно использовать как USB flash/HDD, так и DLNA / Plex - подобные сервисы/программы. дополнительный-внешний плеер не обязателен.

Внимание!
На моделях LG 2016 возможны сюрпризы "через раз", 2017-2018 должно идти без сюрпризов )
скриншот  скриншот  скриншот  

скриншот  скриншот  скриншот  

General
Complete name : D:\Cold.Pursuit.2160p.HEVC_DV.mp4
Format : MPEG-4
Format profile : Base Media / Version 2
Codec ID : mp42 (mp42/iso6/isom/msdh/dby1)
File size : 59.1 GiB
Duration : 1 h 59 min
Overall bit rate : 71.2 Mb/s
Encoded date : UTC 2019-10-06 18:25:18
Tagged date : UTC 2019-10-06 18:25:18

Video #1
ID : 1
Format : HEVC
Format/Info : High Efficiency Video Coding
Format profile : Main 10@L5.1@High
HDR format : SMPTE ST 2086, HDR10 compatible
Codec ID : hev1
Codec ID/Info : High Efficiency Video Coding
Duration : 1 h 59 min
Bit rate : 62.0 Mb/s
Width : 3 840 pixels
Height : 2 160 pixels
Display aspect ratio : 16:9
Frame rate mode : Constant
Frame rate : 23.976 (24000/1001) FPS
Color space : YUV
Chroma subsampling : 4:2:0 (Type 2)
Bit depth : 10 bits
Bits/(Pixel*Frame) : 0.312
Stream size : 51.5 GiB (87%)
Default : No
Encoded date : UTC 2019-10-06 18:25:18
Tagged date : UTC 2019-10-06 18:25:18
Color range : Limited
Color primaries : BT.2020
Transfer characteristics : PQ
Matrix coefficients : BT.2020 non-constant
Mastering display color primaries : Display P3
Mastering display luminance : min: 0.0001 cd/m2, max: 1000 cd/m2
Maximum Content Light Level : 1000 cd/m2
Maximum Frame-Average Light Level : 288 cd/m2
Codec configuration box : hvcC

Video #2
ID : 2
Format : HEVC
Format/Info : High Efficiency Video Coding
Format profile : Main 10@L5.1@High
HDR format : Dolby Vision, Version 1.0, dvhe.07.06, EL+RPU / SMPTE ST 2086, HDR10 compatible
Codec ID : dvhe
Codec ID/Info : High Efficiency Video Coding with Dolby Vision
Duration : 1 h 59 min
Bit rate : 7 697 kb/s
Width : 1 920 pixels
Height : 1 080 pixels
Display aspect ratio : 16:9
Frame rate mode : Constant
Frame rate : 23.976 (24000/1001) FPS
Color space : YUV
Chroma subsampling : 4:2:0 (Type 2)
Bit depth : 10 bits
Bits/(Pixel*Frame) : 0.155
Stream size : 6.40 GiB (11%)
Default : No
Encoded date : UTC 2019-10-06 18:25:18
Tagged date : UTC 2019-10-06 18:25:18
Color range : Limited
Color primaries : BT.2020
Transfer characteristics : PQ
Matrix coefficients : BT.2020 non-constant
Mastering display color primaries : Display P3
Mastering display luminance : min: 0.0001 cd/m2, max: 1000 cd/m2
Codec configuration box : hvcC+dvcC

Audio #1
ID : 3
Format : AC-3
Format/Info : Audio Coding 3
Commercial name : Dolby Digital
Codec ID : ac-3
Duration : 1 h 58 min
Bit rate mode : Constant
Bit rate : 640 kb/s
Channel(s) : 6 channels
Channel layout : L R C LFE Ls Rs
Sampling rate : 48.0 kHz
Frame rate : 31.250 FPS (1536 SPF)
Compression mode : Lossy
Stream size : 545 MiB (1%)
Language : Russian
Service kind : Complete Main
Default : No
Encoded date : UTC 2019-10-06 18:25:18
Tagged date : UTC 2019-10-06 18:25:18

Audio #2
ID : 4
Format : AC-3
Format/Info : Audio Coding 3
Commercial name : Dolby Digital
Codec ID : ac-3
Duration : 1 h 59 min
Bit rate mode : Constant
Bit rate : 640 kb/s
Channel(s) : 6 channels
Channel layout : L R C LFE Ls Rs
Sampling rate : 48.0 kHz
Frame rate : 31.250 FPS (1536 SPF)
Compression mode : Lossy
Stream size : 545 MiB (1%)
Language : English
Service kind : Complete Main
Default : No
Encoded date : UTC 2019-10-06 18:25:18
Tagged date : UTC 2019-10-06 18:25:18

Audio #3
ID : 5
Format : AC-3
Format/Info : Audio Coding 3
Commercial name : Dolby Digital
Codec ID : ac-3
Duration : 1 h 59 min
Bit rate mode : Constant
Bit rate : 192 kb/s
Channel(s) : 2 channels
Channel layout : L R
Sampling rate : 48.0 kHz
Frame rate : 31.250 FPS (1536 SPF)
Compression mode : Lossy
Stream size : 163 MiB (0%)
Language : English
Service kind : Complete Main
Default : No
Encoded date : UTC 2019-10-06 18:25:18
Tagged date : UTC 2019-10-06 18:25:18

pb.wtf



Скачать Снегоуборщик через торрент https://d.radikal.ru/d08/1910/22/94bbd1c8435d.jpg Скачать фильм Снегоуборщик через торрент бесплантно в хорошем качестве Описание: Мистер Коксман - примерный семьянин и уважаемый гражданин, размеренная жизнь которого заканчивается, когда наркоторговцы убивают ... 10 10 2
Торрент: Зарегистрирован [2019-10-06 23:54] · скачан: 10 раз
Статус: √ проверено
Размер: 59.15 GB
Как cкачать? Как скачать Снегоуборщик через торрент | UTorrent

% Раздел Тема Автор DL S | L
Фильмы 2019-2020 [DVDrip, WEB-DLRip, HDrip] (DUB, MVO) [ 2.39 GB ] Снегоуборщик / Cold Pursuit [2019 BDRip-AVC] DUB [] +MVO [CВ Студия] bober100 Скачать
1 | 0
Ultra HD (UHD: 2K, 4K, 8K) — видео сверхвысокой чёткости [ 28.69 GB ] Снегоуборщик / Cold Pursuit [2019 UHD BDRip 2160p] [SDR] DUB [] +2xMVO bober100 Скачать
1 | 0
Ultra HD (UHD: 2K, 4K, 8K) — видео сверхвысокой чёткости [ 18.37 GB ] Снегоуборщик / Cold Pursuit [2019 UHD BDRip 2160p] DUB [] +2xMVO bober100 Скачать
1 | 0
Ultra HD (UHD: 2K, 4K, 8K) — видео сверхвысокой чёткости [ 77 GB ] Снегоуборщик / Cold Pursuit [2019 UHD Blu-ray 2160p] [Dolby Vision] DUB [] bober100 Скачать
1 | 0
Фильмы 2019-2020 [DVDrip, WEB-DLRip, HDrip] (DUB, MVO) [ 2.18 GB ] Снегоуборщик / Cold Pursuit [2019 BDRip] - [] Twi7ter Скачать
35 | 0
Фильмы 2019-2020 [DVDrip, WEB-DLRip, HDrip] (DUB, MVO) [ 1.46 GB ] Снегоуборщик / Cold Pursuit [2019 BDRip] - [] Twi7ter Скачать
19 | 0
Фильмы (Blu-ray, BD-Remux, HDDVD) [ 33.39 GB ] Снегоуборщик / Cold Pursuit [2019 Blu-ray 1080p] [Rus Transfer] DUB [] bober100 Скачать
1 | 0

28-11-2019 20:33  

Отключить всю рекламу на сайте

    Дорогой пользователь! Огромная просьба, поблагодарите релизера, оцените раздачу и оставьте свои комментарий, если Вы скачали Снегоуборщик через торрент бесплатно! Внесите свою лепту в развитие PiratBit!
    Комментировать посты могут только пользователи прошедшие не сложную регистрацию
    Показать сообщения:    

    Снегоуборщик через торрент
    Скачать бесплатно Снегоуборщик
    Снегоуборщик скачать торрент
    Снегоуборщик смотреть онлайн
    Cкачать фильм Снегоуборщик бесплатно
    Снегоуборщик скачать торрент в хорошем качестве
    Снегоуборщик смотреть онлайн бесплатно в хорошем качестве


    Вы не можете начинать темы
    Вы не можете отвечать на сообщения
    Вы не можете редактировать свои сообщения
    Вы не можете удалять свои сообщения
    Вы не можете голосовать в опросах
    Вы не можете прикреплять файлы к сообщениям
    Вы можете скачивать файлы