2 сезон

iTunes

MVO

1

2 сезон

iTunes

iTunes

1 сезон

RePack

30

Ultimate

ВАЖНО

ИГРА 18+

pack

RePack

MK11
pack

Легкие деньги

RePack

jed

RePack

fifa19

RePack

RDR2

RePack

NEED FOR SPEED™ PAYBACK

4 сезон

9 сезон

Бесстыжие 9 сезон

Все сериалы

все сериалы на PB.wtf

RePack

FAR CRY 5

Anonymous, добрый вечер, мы не успеваем собрать деньги на оплату серверов за декабрь и январь, помогите нам пожалуйста в это трудное время. В качестве благодарности мы отключим Вам всю рекламу на сайте (укажите свой ник в строку Ваше имя)!

×
  
Magnet ссылка

Хеллбой / Hellboy (Нил Маршалл) [2019, фэнтези, боевик, приключения, UHD BDRip 2160p] DUB [Лицензия] +MVO [СВ Студия] pb.wtf

Хеллбой через торрент pb.wtf

Размер: 13.67 GB | Добавлен: 1 год 3 мес. назад | Торрент скачан:71 раз
Скачать  

07-10-2019 00:16 Хеллбой Скачать торрент  

Хеллбой / Hellboy««Легенда возвращается»»
Год выпуска: 2019
Страна: США Великобритания Болгария
Жанр: фэнтези, боевик, приключения
Продолжительность: 02:01:02
Перевод:

#1: Дублированный | Лицензия
#2: Профессиональный многоголосый | СВ Студия

Субтитры: Русские (полные [Enigma], полные [FOCS], форсированные, английские

Режиссер: Нил Маршалл

rating

В ролях:

Дэвид Харбор (Hellboy), Иэн Макшейн (Professor Broom), Милла Йовович (Nimue / The Blood Queen), Саша Лэйн (Alice Monaghan), Дэниэл Дэ Ким (Major Ben Daimio), Алистэр Петри (Lord Adam Glaren), Софи Оконедо (Lady Hatton), Брин Глисон (Merlin), Томас Хейден Чёрч (Lobster Johnson), Стивен Грэм (Gruagach, озвучка), Марк Стэнли (Arthur), Надя Керанова (Sister)
Описание:

Близится час битвы Хеллбоя с Кровавой королевой, жаждущей отомстить всему человечеству за века в заточении. Оказавшись в эпицентре столкновения миров людей и монстров, Хеллбою придется пройти через ад, чтобы предотвратить надвигающийся апокалипсис.

Качество: UHD BDRip 2160p
Формат: MKV

Видео: HEVC HDR, 15.1 Mбит/с, 3840x1606, 23.976 кадр/с, 10 Бит
Аудио#1: 48 kHz, AC3, 5.1, 448 Kbps | Лицензия | RUS |
Аудио#2: 48 kHz, AC3, 2.0, 192 Kbps | СВ Студия | RUS |
Аудио#3: 48 kHz, AC3, 5.1, 448 Kbps | Оригинал | ENG |

Общее
Уникальный идентификатор : 254718603715392037328748768827655317327 (0xBFA104C4DB5DE57B9135E1BAFC87E74F)
Полное имя : D:\Мои раздачи\Передел\Hellboy.2019.2160p.BDRip.x265.10bit.HDR.Master_5.mkv
Формат : Matroska
Версия формата : Version 4 / Version 2
Размер файла : 13,7 Гбайт
Продолжительность : 2 ч. 1 м.
Общий поток : 16,2 Мбит/сек
Название фильма : Hellboy.2019.2160p.BDRip.x265.10bit.HDR.Master5
Дата кодирования : UTC 2019-10-05 12:17:19
Программа кодирования : mkvmerge v7.9.0 ('Birds') 64bit
Библиотека кодирования : libebml v1.3.1 + libmatroska v1.4.2
Обложка : Yes
Attachments : small_cover_land.jpg / cover.jpg / cover_land.jpg / small_cover.jpg / Hellboy.png

Видео
Идентификатор : 1
Формат : HEVC
Формат/Информация : High Efficiency Video Coding
Коммерческое название : HDR10
Профиль формата : Main 10@L5.1@High
Идентификатор кодека : V_MPEGH/ISO/HEVC
Продолжительность : 2 ч. 1 м.
Битрейт : 15,1 Мбит/сек
Ширина : 3840 пикселей
Высота : 1606 пикселей
Соотношение сторон : 2,40:1
Режим частоты кадров : Постоянный
Частота кадров : 23,976 (24000/1001) кадра/сек
Цветовое пространство : YUV
Субдискретизация насыщенности : 4:2:0 (Type 2)
Битовая глубина : 10 бит
Бит/(Пиксели*Кадры) : 0.102
Размер потока : 12,7 Гбайт (93%)
Заголовок : Hellboy.2019.2160p.BDRip.x265.10bit.HDR.Master5
Библиотека кодирования : x265 3.0_Au+10-74a8672ea4f7:[Windows][GCC 8.2.1][64 bit] 10bit
Настройки программы : cpuid=1111039 / frame-threads=16 / numa-pools=24,24,24,24 / wpp / no-pmode / no-pme / no-psnr / no-ssim / log-level=2 / input-csp=1 / input-res=3840x1606 / interlace=0 / total-frames=0 / level-idc=51 / high-tier=1 / uhd-bd=0 / ref=3 / no-allow-non-conformance / repeat-headers / annexb / aud / hrd / info / hash=0 / no-temporal-layers / no-open-gop / min-keyint=1 / keyint=24 / gop-lookahead=0 / bframes=4 / b-adapt=2 / b-pyramid / bframe-bias=0 / rc-lookahead=25 / lookahead-slices=4 / scenecut=40 / radl=0 / no-splice / no-intra-refresh / ctu=64 / min-cu-size=8 / no-rect / no-amp / max-tu-size=32 / tu-inter-depth=1 / tu-intra-depth=1 / limit-tu=0 / rdoq-level=0 / dynamic-rd=0.00 / no-ssim-rd / signhide / no-tskip / nr-intra=0 / nr-inter=0 / no-constrained-intra / strong-intra-smoothing / max-merge=2 / limit-refs=3 / no-limit-modes / me=1 / subme=2 / merange=57 / temporal-mvp / weightp / no-weightb / no-analyze-src-pics / deblock=0:0 / no-sao / no-sao-non-deblock / rd=3 / no-early-skip / rskip / no-fast-intra / no-tskip-fast / no-cu-lossless / no-b-intra / no-splitrd-skip / rdpenalty=0 / psy-rd=2.00 / psy-rdoq=0.00 / no-rd-refine / no-lossless / cbqpoffs=0 / crqpoffs=0 / rc=crf / crf=16.0 / qcomp=0.60 / qpstep=4 / stats-write=0 / stats-read=0 / vbv-maxrate=160000 / vbv-bufsize=160000 / vbv-init=0.9 / crf-max=0.0 / crf-min=0.0 / ipratio=1.40 / pbratio=1.30 / aq-mode=1 / aq-strength=1.00 / cutree / zone-count=0 / no-strict-cbr / qg-size=32 / no-rc-grain / qpmax=69 / qpmin=0 / no-const-vbv / sar=1 / overscan=0 / videoformat=5 / range=0 / colorprim=9 / transfer=16 / colormatrix=9 / chromaloc=1 / chromaloc-top=2 / chromaloc-bottom=2 / display-window=0 / master-display=G(13250,34500)B(7500,3000)R(34000,16000)WP(15635,16450)L(40000000,01) / max-cll=3947,542 / min-luma=0 / max-luma=1023 / log2-max-poc-lsb=8 / vui-timing-info / vui-hrd-info / slices=1 / opt-qp-pps / opt-ref-list-length-pps / no-multi-pass-opt-rps / scenecut-bias=0.05 / no-opt-cu-delta-qp / no-aq-motion / hdr / hdr-opt / no-dhdr10-opt / no-idr-recovery-sei / analysis-reuse-level=5 / scale-factor=0 / refine-intra=0 / refine-inter=0 / refine-mv=0 / refine-ctu-distortion=0 / no-limit-sao / ctu-info=0 / no-lowpass-dct / refine-analysis-type=0 / copy-pic=1 / max-ausize-factor=1.0 / no-dynamic-refine / no-single-sei / no-hevc-aq / no-svt / qp-adaptation-range=1.00
Default : Да
Forced : Нет
Цветовой диапазон : Limited
Основные цвета : BT.2020
Характеристики трансфера : PQ
Коэффициенты матрицы : BT.2020 non-constant
MasteringDisplay_ColorPrimaries : Display P3
MasteringDisplay_Luminance : min: 0.0001 cd/m2, max: 4000 cd/m2
MaxCLL : 3947 cd/m2
MaxFALL : 542 cd/m2

Аудио #1
Идентификатор : 2
Формат : AC-3
Формат/Информация : Audio Coding 3
Идентификатор кодека : A_AC3
Продолжительность : 2 ч. 1 м.
Вид битрейта : Постоянный
Битрейт : 448 Кбит/сек
Каналы : 6 каналов
Расположение каналов : Front: L C R, Side: L R, LFE
Частота : 48,0 КГц
Частота кадров : 31,250 кадров/сек (1536 SPF)
Битовая глубина : 16 бит
Метод сжатия : С потерями
Размер потока : 388 Мбайт (3%)
Заголовок : Dub (Blu-Ray)
Язык : Russian
ServiceKind/String : Complete Main
Default : Да
Forced : Нет

Аудио #2
Идентификатор : 3
Формат : AC-3
Формат/Информация : Audio Coding 3
Идентификатор кодека : A_AC3
Продолжительность : 2 ч. 0 м.
Вид битрейта : Постоянный
Битрейт : 192 Кбит/сек
Каналы : 2 канала
Расположение каналов : Front: L R
Частота : 48,0 КГц
Частота кадров : 31,250 кадров/сек (1536 SPF)
Битовая глубина : 16 бит
Метод сжатия : С потерями
Размер потока : 166 Мбайт (1%)
Заголовок : MVO (SV Studio)
Язык : Russian
ServiceKind/String : Complete Main
Default : Нет
Forced : Нет

Аудио #3
Идентификатор : 4
Формат : AC-3
Формат/Информация : Audio Coding 3
Идентификатор кодека : A_AC3
Продолжительность : 2 ч. 1 м.
Вид битрейта : Постоянный
Битрейт : 448 Кбит/сек
Каналы : 6 каналов
Расположение каналов : Front: L C R, Side: L R, LFE
Частота : 48,0 КГц
Частота кадров : 31,250 кадров/сек (1536 SPF)
Битовая глубина : 16 бит
Метод сжатия : С потерями
Размер потока : 388 Мбайт (3%)
Язык : English
ServiceKind/String : Complete Main
Default : Нет
Forced : Нет

Текст #1
Идентификатор : 5
Формат : UTF-8
Идентификатор кодека : S_TEXT/UTF8
Идентификатор кодека/Информация : UTF-8 Plain Text
Продолжительность : 1 ч. 48 м.
Битрейт : 1 бит/сек
ElementCount : 21
Размер потока : 1,01 Кбайт (0%)
Заголовок : Forced
Язык : Russian
Default : Да
Forced : Нет

Текст #2
Идентификатор : 6
Формат : UTF-8
Идентификатор кодека : S_TEXT/UTF8
Идентификатор кодека/Информация : UTF-8 Plain Text
Продолжительность : 2 ч. 0 м.
Битрейт : 85 бит/сек
ElementCount : 1543
Размер потока : 75,7 Кбайт (0%)
Заголовок : Full (Enigma) cens
Язык : Russian
Default : Нет
Forced : Нет

Текст #3
Идентификатор : 7
Формат : UTF-8
Идентификатор кодека : S_TEXT/UTF8
Идентификатор кодека/Информация : UTF-8 Plain Text
Продолжительность : 2 ч. 0 м.
Битрейт : 84 бит/сек
ElementCount : 1547
Размер потока : 74,6 Кбайт (0%)
Заголовок : Full (FOCS) uncens
Язык : Russian
Default : Нет
Forced : Нет

Текст #4
Идентификатор : 8
Формат : UTF-8
Идентификатор кодека : S_TEXT/UTF8
Идентификатор кодека/Информация : UTF-8 Plain Text
Продолжительность : 2 ч. 0 м.
Битрейт : 53 бит/сек
ElementCount : 1528
Размер потока : 46,7 Кбайт (0%)
Заголовок : Full
Язык : English
Default : Нет
Forced : Нет

Текст #5
Идентификатор : 9
Формат : UTF-8
Идентификатор кодека : S_TEXT/UTF8
Идентификатор кодека/Информация : UTF-8 Plain Text
Продолжительность : 2 ч. 0 м.
Битрейт : 59 бит/сек
ElementCount : 1899
Размер потока : 52,9 Кбайт (0%)
Заголовок : SDH
Язык : English
Default : Нет
Forced : Нет

Меню
00:00:00.000 : en:Chapter 01
00:08:54.284 : en:Chapter 02
00:14:41.714 : en:Chapter 03
00:22:34.853 : en:Chapter 04
00:30:12.602 : en:Chapter 05
00:35:48.730 : en:Chapter 06
00:43:50.461 : en:Chapter 07
00:53:17.611 : en:Chapter 08
01:01:09.791 : en:Chapter 09
01:09:24.786 : en:Chapter 10
01:17:32.606 : en:Chapter 11
01:26:07.579 : en:Chapter 12
01:28:37.896 : en:Chapter 13
01:37:58.456 : en:Chapter 14
01:45:49.969 : en:Chapter 15
01:51:06.660 : en:Chapter 16

pb.wtf



Скачать Хеллбой через торрент https://c.radikal.ru/c06/1907/9e/be12c5a5c0b7.png Скачать фильм Хеллбой через торрент бесплантно в хорошем качестве Описание: Близится час битвы Хеллбоя с Кровавой королевой, жаждущей отомстить всему человечеству за века в заточении. Оказавшись в ... 10 10 3
Торрент: Зарегистрирован [2019-10-07 00:16] · скачан: 71 раз
Статус: √ проверено
Размер: 13.67 GB
Как cкачать? Как скачать Хеллбой через торрент | UTorrent

% Раздел Тема Автор DL S | L
Ultra HD (UHD: 2K, 4K, 8K) — видео сверхвысокой чёткости [ 62.7 GB ] Хеллбой / Hellboy [2019 UHD BDRemux 2160p] [Dolby Vision TV] bober100 Скачать
1 | 0
Ultra HD (UHD: 2K, 4K, 8K) — видео сверхвысокой чёткости [ 56.96 GB ] Хеллбой / Hellboy [2019 UHD BDRemux 2160p] [Dolby Vision TV] DUB + MVO [СВ Студия] sheker187 Скачать
3 | 0
Официальные cаундтреки к зарубежным фильмам [ 302 MB ] OST - Хеллбой / Hellboy [Music by Benjamin Wallfisch] 2019 / FLAC / Lossless / Score bober100 Скачать
1 | 0
Фильмы 2019-2020 [DVDrip, WEB-DLRip, HDrip] (DUB, MVO) [ 2.42 GB ] Хеллбой / Hellboy [2019 HDRip-AVC] DUB [] MVO - ExKinoRay Enigma2010 Скачать
5 | 0
Фильмы 2006-2008 [ 2.27 GB ] Хеллбой II: Золотая армия / Hellboy II: The Golden Army [2008 BDRip] - [] Twi7ter Скачать
9 | 12
Фильмы 2006-2008 [ 1.46 GB ] Хеллбой II: Золотая армия / Hellboy II: The Golden Army [2008 BDRip] - [] Twi7ter Скачать
13 | 1
Фильмы 2001-2005 [ 2.18 GB ] Хеллбой: Герой из пекла / Hellboy [2004 BDRip] - [] Twi7ter Скачать
12 | 1

28-11-2019 20:33  

Отключить всю рекламу на сайте


    Дорогой пользователь! Огромная просьба, поблагодарите релизера, оцените раздачу и оставьте свои комментарий, если Вы скачали Хеллбой через торрент бесплатно! Внесите свою лепту в развитие PiratBit!
    Комментировать посты могут только пользователи прошедшие не сложную регистрацию
    Показать сообщения:    

    Хеллбой через торрент
    Скачать бесплатно Хеллбой
    Хеллбой скачать торрент
    Хеллбой смотреть онлайн
    Cкачать фильм Хеллбой бесплатно
    Хеллбой скачать торрент в хорошем качестве
    Хеллбой смотреть онлайн бесплатно в хорошем качестве


    Вы не можете начинать темы
    Вы не можете отвечать на сообщения
    Вы не можете редактировать свои сообщения
    Вы не можете удалять свои сообщения
    Вы не можете голосовать в опросах
    Вы не можете прикреплять файлы к сообщениям
    Вы можете скачивать файлы