новый адрес
Мега распродажа FORZA HORIZON 4 ULTIMATE+ВСЕ DLC+ОНЛАЙН всего за 499р. 349 руб. (супер цена). Внимание количество ограничено!!!

iTunes

1+1

iTunes

мы

iTunes

1

iTunes

Чернобыль

iTunes

Ральф против интернета

Лицензия

ПШазам

Лицензия

Игра престолов

Лицензия

30
pack

ВАЖНО

!!Акция!!

Alien_RageХит недели

RePack

Resident Evil 21

ИГРА 18+

pack

RePack

Metro:Exodus

!!Акция!!

Alien_Rage

RePack

fifa19

RePack

Assassins Creed: Odyssey

RePack

NEED FOR SPEED™ PAYBACK

3 сезон

9 сезон

Бесстыжие 9 сезон

Все сериалы

все сериалы на PB.wtf

RePack

FAR CRY 5
Ребята, катастрофически не хватает 1900р. для оплаты серверов за Октябрь (всвязи с блокировками трафик упал в 3 раза), 1-2р., выручайте.
  

Оно 2 / Воно 2 / It Chapter Two (Андрес Мускетти) [2019, ужасы, WEBRip 1080p] DUB [UKR / Line] pb.wtf

Оно 2 через торрент pb.wtf

Раздают: 5 [ 64 KB/s ]
Размер: 5.71 GB | Добавлен: 1 мес. 9 д. назад | Торрент скачан:131 раз
Скачать  

07-10-2019 17:58 Оно 2 Скачать торрент  

Оно 2 / Воно 2 / It Chapter Two
Год выпуска: 2019
Страна: Канада, США
Жанр: ужасы
Продолжительность: 02:44:39
Перевод: Дублированный | Line, Украинский
Субтитры: Корейские (вшитые)

Режиссер: Андрес Мускетти

rating

В ролях: Джессика Честейн, Джеймс МакЭвой, Билл Хейдер, Айзая Мустафа, Джей Райан, Джеймс Рэнсон, Энди Бин, Билл Скарсгард, Джейден Мартелл, Уайатт Олефф

Описание: Проходит 27 лет после первой встречи ребят с демоническим Пеннивайзом. Они уже выросли, и у каждого своя жизнь. Но неожиданно их спокойное существование нарушает странный телефонный звонок, который заставляет их вновь собраться вместе.

Качество: WEBRip 1080p
Формат: MKV

Видео: AVC, 1920x800 (2.40:1), 30.000 fps, 4 500 kb/s
Аудио#1: AC3, 48.0 kHz, 2 ch, 192 kb/s | UKR (DUB / Line)
Аудио#2: AAC, 48.0 kHz, 2 ch, 256 kb/s | ENG
скриншот  скриншот  скриншот  скриншот  скриншот  

General
Unique ID : 248452618435898808937306526593404076396 (0xBAEA3BD7BDF26EF5ABEC1E19DA13816C)
Complete name : It.Chapter.Two.2019.WEBRip.1080p.Ukr.Eng.mkv
Format : Matroska
Format version : Version 4
File size : 5.71 GiB
Duration : 2 h 44 min
Overall bit rate : 4 967 kb/s
Encoded date : UTC 2019-10-07 17:39:10
Writing application : mkvmerge v8.3.0 ('Over the Horizon') 64bit
Writing library : libebml v1.3.1 + libmatroska v1.4.2

Video
ID : 1
Format : AVC
Format/Info : Advanced Video Codec
Format profile : High@L4.1
Format settings : CABAC / 4 Ref Frames
Format settings, CABAC : Yes
Format settings, ReFrames : 4 frames
Codec ID : V_MPEG4/ISO/AVC
Duration : 2 h 44 min
Bit rate : 4 500 kb/s
Width : 1 920 pixels
Height : 800 pixels
Display aspect ratio : 2.40:1
Frame rate mode : Constant
Frame rate : 30.000 FPS
Color space : YUV
Chroma subsampling : 4:2:0
Bit depth : 8 bits
Scan type : Progressive
Bits/(Pixel*Frame) : 0.098
Stream size : 5.19 GiB (91%)
Writing library : x264 core 148 r2748 97eaef2
Encoding settings : cabac=1 / ref=4 / deblock=1:0:0 / analyse=0x3:0x113 / me=umh / subme=9 / psy=1 / psy_rd=1.00:0.00 / mixed_ref=1 / me_range=16 / chroma_me=1 / trellis=2 / 8x8dct=1 / cqm=0 / deadzone=21,11 / fast_pskip=1 / chroma_qp_offset=-2 / threads=72 / lookahead_threads=6 / sliced_threads=0 / nr=0 / decimate=1 / interlaced=0 / bluray_compat=0 / constrained_intra=0 / bframes=3 / b_pyramid=2 / b_adapt=2 / b_bias=0 / direct=3 / weightb=1 / open_gop=0 / weightp=2 / keyint=250 / keyint_min=25 / scenecut=40 / intra_refresh=0 / rc_lookahead=50 / rc=abr / mbtree=1 / bitrate=4500 / ratetol=1.0 / qcomp=0.60 / qpmin=0 / qpmax=69 / qpstep=4 / ip_ratio=1.40 / aq=1:1.00
Default : Yes
Forced : No

Audio #1
ID : 2
Format : AC-3
Format/Info : Audio Coding 3
Commercial name : Dolby Digital
Codec ID : A_AC3
Duration : 2 h 44 min
Bit rate mode : Constant
Bit rate : 192 kb/s
Channel(s) : 2 channels
Channel layout : L R
Sampling rate : 48.0 kHz
Frame rate : 31.250 FPS (1536 SPF)
Bit depth : 16 bits
Compression mode : Lossy
Stream size : 226 MiB (4%)
Title : DUB [Line]
Language : Ukrainian
Default : Yes
Forced : No

Audio #2
ID : 3
Format : AAC LC
Format/Info : Advanced Audio Codec Low Complexity
Codec ID : A_AAC-2
Duration : 2 h 44 min
Bit rate : 256 kb/s
Channel(s) : 2 channels
Channel layout : L R
Sampling rate : 48.0 kHz
Frame rate : 46.875 FPS (1024 SPF)
Compression mode : Lossy
Delay relative to video : 52 ms
Stream size : 302 MiB (5%)
Language : English
Default : No
Forced : No

pb.wtf



Скачать Оно 2 через торрент https://i6.imageban.ru/out/2019/10/07/0eb5af156ea18e2c98cb70e0790d64fd.jpg Скачать фильм Оно 2 через торрент бесплантно в хорошем качестве Описание: Проходит 27 лет после первой встречи ребят с демоническим Пеннивайзом. Они уже выросли, и у каждого своя жизнь. Но неожиданно их ... 7.9 10 8
Info! Золотая раздача, скачанное не засчитывается.
Торрент: Зарегистрирован [2019-10-07 17:58] · скачан: 131 раз
Статус: T временная
Размер: 5.71 GB
Как cкачать? Как скачать Оно 2 через торрент | qTorrent


>> Регистрируемся здесь <<






Отзывы и комментарии о схеме читаем и пишем здесь: ---> Отзывы и комментарии о схеме

Новые благодарочки в телеграм довольных пользователей:
скриншот   скриншот   скриншот   скриншот   скриншот
    Дорогой пользователь! Огромная просьба, поблагодарите релизера, оцените раздачу и оставьте свои комментарий, если Вы скачали Оно 2 через торрент бесплатно! Внесите свою лепту в развитие PiratBit!
    Комментировать посты могут только пользователи прошедшие не сложную регистрацию
    Показать сообщения:    

    Оно 2 через торрент
    Скачать бесплатно Оно 2
    Оно 2 скачать торрент
    Оно 2 смотреть онлайн
    Cкачать фильм Оно 2 бесплатно
    Оно 2 скачать торрент в хорошем качестве
    Оно 2 смотреть онлайн бесплатно в хорошем качестве


    Вы не можете начинать темы
    Вы не можете отвечать на сообщения
    Вы не можете редактировать свои сообщения
    Вы не можете удалять свои сообщения
    Вы не можете голосовать в опросах
    Вы не можете прикреплять файлы к сообщениям
    Вы можете скачивать файлы