Ссылка на приватное зеркало нашего сайта всего за 1$. Внимание количество ограничено!!!

2 сезон

iTunes

1 сезон

1

iTunes

iTunes

iTunes

1 сезон

RePack

30

ИГРА 18+

pack

ВАЖНО

!!Акция!!

Alien_RageХит недели

RePack

MK11
pack

Забери бонус

RePack

jed

!!Акция!!

Alien_Rage

RePack

fifa19

RePack

Assassins Creed: Odyssey

RePack

NEED FOR SPEED™ PAYBACK

4 сезон

9 сезон

Бесстыжие 9 сезон

Все сериалы

все сериалы на PB.wtf

RePack

FAR CRY 5
  

Входя в дом, оглянись / Сезон: 1 / Серии: 1-8 из 8 (Андрей Малюков) [2019, Мелодрама, WEB-DLRip] pb.wtf

Входя в дом, оглянись через торрент pb.wtf

Размер: 5.16 GB | Добавлен: 1 год назад | Торрент скачан:42 раза
Скачать  

08-10-2019 01:03 Входя в дом, оглянись Скачать торрент  

Входя в дом, оглянись
Год выпуска: 2019
Страна: Россия
Жанр: Мелодрама
Продолжительность: ~ 00:52:00 серия
Субтитры: отсутствуют

Режиссер: Андрей Малюков



В ролях: Екатерина Гусева, Владимир Гуськов (II), Александр Домогаров, Анна Уколова, Анастасия Дьячук, Кристина Асмус, Марат Абдрахимов, Динара Гартмон, Всеволод Макаров, Вячеслав Ковалёв, Александр Марушев, Наталья Гребёнкина, Виктор Конухин, Денис Старков, Александр Нестеров, Василий Мищенко, Людмила Галиаскарова

Описание: В семье Антонины и Михаила Савостиных — самой богатой в районе — налицо мезальянс. Антонина слишком молода и красива для своего пожилого мужа. Но совместный бизнес и деньги порой привязывают людей крепче самой большой любви. Так бы и жили Савостины, если бы не приехал однажды к ним дальний родственник Артур.

Качество: WEB-DLRip
Формат: AVI

Видео: XviD, ~ 1600 Кбит/с, 720x304
Аудио: 48 kHz, AC3, 2 ch, ~ 192 kbps avg
скриншот  скриншот  скриншот  скриншот  

Общее
Полное имя : C:\Входя в дом, оглянись .2019 WEB-DLRip. Files-x\01. Входя в дом, оглянись .2019 WEB-DLRip. Files-x.avi
Формат : AVI
Формат/Информация : Audio Video Interleave
Размер файла : 646 Мбайт
Продолжительность : 50 м. 7 с.
Общий поток : 1802 Кбит/сек
Программа кодирования : VirtualDubMod 1.5.10.3 | www.virtualdub-fr.org || (build 2550/release)
Библиотека кодирования : VirtualDubMod build 2550/release

Видео
Идентификатор : 0
Формат : MPEG-4 Visual
Профиль формата : Advanced Simple@L5
Настройки формата : BVOP1 / Custom Matrix
Параметр BVOP формата : 1
Параметр QPel формата : Нет
Параметр GMC формата : Без точки перехода
Параметр матрицы формата : Выборочная
Идентификатор кодека : XVID
Идентификатор кодека/Подсказка : XviD
Продолжительность : 50 м. 7 с.
Битрейт : 1529 Кбит/сек
Ширина : 720 пикселей
Высота : 304 пикселя
Соотношение сторон : 2,35:1
Частота кадров : 25,000 кадров/сек
Цветовое пространство : YUV
Субдискретизация насыщенности : 4:2:0
Битовая глубина : 8 бит
Тип развёртки : Прогрессивная
Метод сжатия : С потерями
Бит/(Пиксели*Кадры) : 0.279
Размер потока : 548 Мбайт (85%)
Библиотека кодирования : XviD 73

Аудио
Идентификатор : 1
Формат : AC-3
Формат/Информация : Audio Coding 3
Коммерческое название : Dolby Digital
Идентификатор кодека : 2000
Продолжительность : 50 м. 7 с.
Вид битрейта : Постоянный
Битрейт : 192 Кбит/сек
Каналы : 2 канала
ChannelLayout : L R
Частота : 48,0 КГц
Частота кадров : 31,250 кадров/сек (1536 SPF)
Битовая глубина : 16 бит
Метод сжатия : С потерями
Размер потока : 68,8 Мбайт (11%)
Выравнивание : Разделение по промежуткам
ServiceKind/String : Complete Main

При каждом добавлении создаётся новый торрент. Чтобы начать докачку новой серии, пользователям необходимо сделать следующее:
- остановить скачивание;
- удалить старый торрент у себя из клиента (старые серии удалять не надо);
- скачать новый торрент и запустить его у себя в клиенте вместо старого, при этом указать клиенту путь в старую папку, куда и должно происходить скачивание новых серий.
pb.wtf



Скачать Входя в дом, оглянись через торрент https://i87.fastpic.ru/big/2019/1007/25/371ad4bb05aabd47b42059207761f225.jpg Скачать фильм Входя в дом, оглянись через торрент бесплантно в хорошем качестве Описание: В семье Антонины и Михаила Савостиных — самой богатой в районе — налицо мезальянс. Антонина слишком молода и красива для своего ... 10 10 3
Торрент: Зарегистрирован [2019-10-11 09:01] · скачан: 42 раз
Статус: √ проверено
Размер: 5.16 GB
Как cкачать? Как скачать Входя в дом, оглянись через торрент | qTorrent

% Раздел Тема Автор DL S | L
Наши сериалы [ 4.69 GB ] Входя в дом оглянись / Сезон: 1 / Серии: 1-8 из 8 [2019 Мело SATRip] bober100 Скачать
1 | 0
Наши сериалы [ 5.14 GB ] Входя в дом оглянись / Сезон: 1 / Серии: 1-8 из 8 [2019 Мело WEB-DLRip-AVC] bober100 Скачать
1 | 0
Наши сериалы [ 10.52 GB ] Входя в дом оглянись / Сезон: 1 / Серии: 1-8 из 8 [2019 Мело HDTVRip 720p] bober100 Скачать
1 | 0
Наши сериалы [ 21.81 GB ] Входя в дом оглянись / Сезон: 1 / Серии: 1-8 из 8 [2019 Мело HDTV 1080i] bober100 Скачать
1 | 0

28-11-2019 20:33  

Отключить всю рекламу на сайте

    Дорогой пользователь! Огромная просьба, поблагодарите релизера, оцените раздачу и оставьте свои комментарий, если Вы скачали Входя в дом, оглянись через торрент бесплатно! Внесите свою лепту в развитие PiratBit!
    Комментировать посты могут только пользователи прошедшие не сложную регистрацию
    Показать сообщения:    

    Входя в дом, оглянись через торрент
    Скачать бесплатно Входя в дом, оглянись
    Входя в дом, оглянись скачать торрент
    Входя в дом, оглянись смотреть онлайн
    Cкачать фильм Входя в дом, оглянись бесплатно
    Входя в дом, оглянись скачать торрент в хорошем качестве
    Входя в дом, оглянись смотреть онлайн бесплатно в хорошем качестве


    Вы не можете начинать темы
    Вы не можете отвечать на сообщения
    Вы не можете редактировать свои сообщения
    Вы не можете удалять свои сообщения
    Вы не можете голосовать в опросах
    Вы не можете прикреплять файлы к сообщениям
    Вы можете скачивать файлы