MEGA NEWS Получи личный уникальный адрес сайта и защити себя от блокировок. Внимание количество ограничено!!!

iTunes

1+1

iTunes

мы

iTunes

1

iTunes

Чернобыль

iTunes

Ральф против интернета

Лицензия

ПШазам

Лицензия

Игра престолов

Лицензия

30
pack

ВАЖНО

!!Акция!!

Alien_RageХит недели

RePack

Resident Evil 21

ИГРА 18+

pack

RePack

Metro:Exodus

!!Акция!!

Alien_Rage

RePack

fifa19

RePack

Assassins Creed: Odyssey

RePack

NEED FOR SPEED™ PAYBACK

3 сезон

9 сезон

Бесстыжие 9 сезон

Все сериалы

все сериалы на PB.wtf

RePack

FAR CRY 5
Ребята, катастрофически не хватает 1900р. для оплаты серверов за АВГУСТ (всвязи с блокировками трафик упал в 3 раза), 1-2р., выручайте.
  

Маркус / Сезон: 1 / Серии: 1-8 из 8 (Антон Азаров) [2019, Детектив, мелодрама, WEBRip] pb.wtf

Маркус через торрент pb.wtf

Раздают: 4 [ 311 KB/s ]
Размер: 4.51 GB | Добавлен: 6 д. назад | Торрент скачан:17 раз
Скачать  

08-10-2019 01:26 Маркус Скачать торрент  

Маркус
Год выпуска: 2019
Страна: Латвия, Украина
Жанр: Детектив, мелодрама
Продолжительность: 00:44:00
Перевод: Не требуется
Субтитры: отсутствуют

Режиссер: Антон Азаров

В ролях: Евгения Розанова, Кирилл Рубцов, Рихард Леперс, Александр Нейкенс, Лилия Ребрик, Агнесе Цируле, Ксения Мишина, Михаил Кукуюк, Ева Шевченко-Головко, Сергей Деньга

Описание: В основе сюжета – история обычной учительницы Полины Клочко, жизнь которой кардинально изменил трагический случай, – когда из детского сада был похищен её сын Марк. Спустя несколько лет в рубрике международных новостей в репортаже об инциденте в Рижском торговом центре Полина узнает своего сына. Женщина обращается в полицию с просьбой возобновить дело о потере мальчика, но для этого у неё недостаточно оснований. Полина решает действовать своими силами, в результате чего судьба связывает её с майором в отставке и по совместительству отцом одной из её учениц – Денисом Денисовым. Помогая Полине в расследовании, бывший силовик замечает слишком много удивительных совпадений в подобных «делах» за последние 5 лет...

Качество: WEBRip
Формат: AVI

Видео: XviD, ~ 1634 Кбит/с, 720x400, 25 кадр/с
Аудио: 48 kHz, AC3, 2 ch, ~ 192 kbps avg
скриншот  скриншот  скриншот  скриншот  скриншот  

General
Complete name: C:01.Маркус.(2019).WEBRip.by.Nicodem.Files-x.avi
Format: AVI
Format/Info: Audio Video Interleave
File size: 582 MiB
Duration: 44mn 17s
Overall bit rate: 1 836 Kbps
Writing application: VirtualDubMod 1.5.10.3 | www.virtualdub-fr.org || (build 2550/release)
Writing library: VirtualDubMod build 2550/release

Video
ID: 0
Format: MPEG-4 Visual
Format profile: Advanced Simple@L5
Format settings, BVOP: 1
Format settings, QPel: No
Format settings, GMC: No warppoints
Format settings, Matrix: Custom
Codec ID: XVID
Codec ID/Hint: XviD
Duration: 44mn 17s
Bit rate: 1 634 Kbps
Width: 720 pixels
Height: 400 pixels
Display aspect ratio: 16:9
Frame rate: 25.000 fps
Color space: YUV
Chroma subsampling: 4:2:0
Bit depth: 8 bits
Scan type: Progressive
Compression mode: Lossy
Bits/(Pixel*Frame): 0.227
Stream size: 518 MiB (89%)
Writing library: XviD 73

Audio
ID: 1
Format: AC-3
Format/Info: Audio Coding 3
Mode extension: CM (complete main)
Codec ID: 2000
Duration: 44mn 17s
Bit rate mode: Constant
Bit rate: 192 Kbps
Channel(s): 2 channels
Channel positions: Front: L R
Sampling rate: 48.0 KHz
Bit depth: 16 bits
Compression mode: Lossy
Stream size: 60.8 MiB (10%)
Alignment: Split accross interleaves
Interleave, duration: 40 ms (1.00 video frame)
Interleave, preload duration: 500 ms

При каждом добавлении создаётся новый торрент. Чтобы начать докачку новой серии, пользователям необходимо сделать следующее:
- остановить скачивание;
- удалить старый торрент у себя из клиента (старые серии удалять не надо);
- скачать новый торрент и запустить его у себя в клиенте вместо старого, при этом указать клиенту путь в старую папку, куда и должно происходить скачивание новых серий.
pb.wtf



Скачать Маркус через торрент https://i86.fastpic.ru/big/2019/1007/94/e4c3c3ce624d5a7772abd3a23d217f94.jpg Скачать фильм Маркус через торрент бесплантно в хорошем качестве Описание: В основе сюжета – история обычной учительницы Полины Клочко, жизнь которой кардинально изменил трагический случай, – когда из ... 10 10 4
Торрент: Зарегистрирован [2019-10-11 10:35] · скачан: 17 раз
Статус: √ проверено
Размер: 4.51 GB
Как cкачать? Как скачать Маркус через торрент | qTorrent

% Раздел Тема Автор DL S | L
Наши сериалы [ 7.9 GB ] Маркус / Сезон: 1 / Серии: 1-8 из 8 [2019 WEBRip 720p] bober100 Скачать
3 | 0
Наши сериалы [ 4.46 GB ] Маркус / Сезон: 1 / Серии: 1-8 из 8 [2019 WEBRip-AVC] bober100 Скачать
1 | 0
Зарубежные сериалы [ 4.29 GB ] Механизм / O Mecanismo / Сезон: 1 / Серии: 1-8 из 8 [2018 WEB-DLRip] MVO [NewStudio] bober100 Скачать
1 | 0
Зарубежные сериалы [ 13.98 GB ] Механизм / O Mecanismo / Сезон: 1 / Серии: 1-8 из 8 [2018 WEBRip 720p] MVO [Jaskier] bober100 Скачать
1 | 0
Зарубежные сериалы [ 4.01 GB ] Механизм / O Mecanismo / Сезон: 1 / Серии: 1-8 из 8 [2018 WEBRip] MVO [Jaskier] bober100 Скачать
1 | 0
Зарубежные сериалы [ 28.44 GB ] Механизм / O Mecanismo / Сезон: 1 / Серии: 1-8 из 8 [2018 WEBRip 1080p] MVO [Jaskier] bober100 Скачать
1 | 0


>> Регистрируемся здесь <<






Отзывы и комментарии о схеме читаем и пишем здесь: ---> Отзывы и комментарии о схеме

Новые благодарочки в телеграм довольных пользователей:
скриншот   скриншот   скриншот   скриншот   скриншот
    Дорогой пользователь! Огромная просьба, поблагодарите релизера, оцените раздачу и оставьте свои комментарий, если Вы скачали Маркус через торрент бесплатно! Внесите свою лепту в развитие PiratBit!
    Комментировать посты могут только пользователи прошедшие не сложную регистрацию
    Показать сообщения:    

    Маркус через торрент
    Скачать бесплатно Маркус
    Маркус скачать торрент
    Маркус смотреть онлайн
    Cкачать фильм Маркус бесплатно
    Маркус скачать торрент в хорошем качестве
    Маркус смотреть онлайн бесплатно в хорошем качестве


    Вы не можете начинать темы
    Вы не можете отвечать на сообщения
    Вы не можете редактировать свои сообщения
    Вы не можете удалять свои сообщения
    Вы не можете голосовать в опросах
    Вы не можете прикреплять файлы к сообщениям
    Вы можете скачивать файлы