новый адрес пиратбит piratbit
Мега распродажа FORZA HORIZON 4 ULTIMATE+ВСЕ DLC+ОНЛАЙН всего за 499р. 349 руб. (супер цена). Внимание количество ограничено!!!

iTunes

1+1

iTunes

мы

iTunes

1

iTunes

Чернобыль

iTunes

Ральф против интернета

Лицензия

ПШазам

Лицензия

Игра престолов

Лицензия

30
pack

ВАЖНО

!!Акция!!

Alien_RageХит недели

RePack

Resident Evil 21

ИГРА 18+

pack

RePack

Metro:Exodus

!!Акция!!

Alien_Rage

RePack

fifa19

RePack

Assassins Creed: Odyssey

RePack

NEED FOR SPEED™ PAYBACK

3 сезон

9 сезон

Бесстыжие 9 сезон

Все сериалы

все сериалы на PB.wtf

RePack

FAR CRY 5
Ребята, катастрофически не хватает 1900р. для оплаты серверов за Октябрь (всвязи с блокировками трафик упал в 3 раза), 1-2р., выручайте.
  

Несколько слишком спокойных господ / Quelques Messieurs Trop Tranquilles (Жорж Лотнер) [1973, комедия, криминал, детектив, BDRip 1080p by msltel] MVO pb.wtf

Несколько слишком спокойных господ через торрент pb.wtf

Раздают: 1 [ 0 KB/s ]
Размер: 13.22 GB | Добавлен: 1 мес. 4 д. назад | Торрент скачан:1 раз
Скачать  

08-10-2019 05:44 Несколько слишком спокойных господ Скачать торрент  

Название: Несколько слишком спокойных господ
Оригинальное название: Quelques Messieurs Trop Tranquilles
Год выпуска: 1973
Страна: Франция
Жанр: комедия, криминал, детектив
Продолжительность: 01:36:15
Перевод: закадровый многоголосый

Режиссер: Жорж Лотнер
В ролях: Дани, Мишель Галабрю, Анри Гибе, Жан Лефевр, Андре Пусс, Бруно Прадаль, Поль Пребуа, Рене Сен-Сир, Чарльз Саутвуд, Миу-Миу

О фильме: Чтобы спасти свою деревню от окончательного запустения, местные жители из кожи вон лезут, стараясь заманить туристов. Но, на их беду, к ним в гости едут только бесшабашные хиппари, которые, в конце концов, надоедают горожанам своими выходками. Спокойные провинциалы, которых достала разгульная молодежь, выгоняют постояльцев из города. Но вскоре жителям деревни приходится объединиться с хиппи в поисках таинственных преступников...



Качество: BDRip 1080p
Формат: MKV
Видео: MPEG-4 AVC, 18.7 Mбит/с, 1804x1080
Аудио 1: русский, AC3, 192 kbps, 2 ch, 48 kHz [закадровый многоголосый, т/к Россия]
Аудио 2: французский, DTS, 768 kbps, 2 ch, 48 kHz [оригинал]
Субтитры 1: русские (Антон Каптелов)
Субтитры 2: английские
Главы/чаптеры
Общее
Уникальный идентификатор : 221307832076638159840875076161704946809 (0xA67E568BE96023C79135D1EE9D55EC79)
Полное имя : D:\Video\Несколько слишком спокойных господ.1973.BDRip 1080p by msltel.mkv
Формат : Matroska
Версия формата : Version 4
Размер файла : 13,2 Гбайт
Продолжительность : 1 ч. 36 м.
Общий поток : 19,7 Мбит/сек
Дата кодирования : UTC 2019-10-07 14:51:20
Программа кодирования : mkvmerge v8.2.0 ('World of Adventure') 64bit
Библиотека кодирования : libebml v1.3.1 + libmatroska v1.4.2

Видео
Идентификатор : 1
Формат : AVC
Формат/Информация : Advanced Video Codec
Профиль формата : High@L4.1
Настройки формата : CABAC / 4 Ref Frames
Параметр CABAC формата : Да
Параметр RefFrames формата : 4 кадра
Идентификатор кодека : V_MPEG4/ISO/AVC
Продолжительность : 1 ч. 36 м.
Битрейт : 18,7 Мбит/сек
Ширина : 1804 пикселя
Высота : 1080 пикселей
Соотношение сторон : 5:3
Режим частоты кадров : Постоянный
Частота кадров : 24,000 кадра/сек
Цветовое пространство : YUV
Субдискретизация насыщенности : 4:2:0
Битовая глубина : 8 бит
Тип развёртки : Прогрессивная
Бит/(Пиксели*Кадры) : 0.400
Размер потока : 12,6 Гбайт (95%)
Библиотека кодирования : x264 core 157 r2935 545de2f
Настройки программы : cabac=1 / ref=4 / deblock=1:-2:-2 / analyse=0x3:0x113 / me=umh / subme=11 / psy=1 / psy_rd=1.00:0.15 / mixed_ref=1 / me_range=32 / chroma_me=1 / trellis=2 / 8x8dct=1 / cqm=0 / deadzone=21,11 / fast_pskip=0 / chroma_qp_offset=-3 / threads=6 / lookahead_threads=1 / sliced_threads=0 / nr=0 / decimate=1 / interlaced=0 / bluray_compat=0 / constrained_intra=0 / bframes=8 / b_pyramid=2 / b_adapt=2 / b_bias=0 / direct=1 / weightb=1 / open_gop=0 / weightp=2 / keyint=230 / keyint_min=23 / scenecut=40 / intra_refresh=0 / rc_lookahead=40 / rc=crf / mbtree=1 / crf=19.0 / qcomp=0.60 / qpmin=0 / qpmax=69 / qpstep=4 / vbv_maxrate=50000 / vbv_bufsize=62500 / crf_max=0.0 / nal_hrd=none / filler=0 / ip_ratio=1.40 / aq=1:1.00
Язык : French
Default : Да
Forced : Нет

Аудио #1
Идентификатор : 2
Формат : AC-3
Формат/Информация : Audio Coding 3
Коммерческое название : Dolby Digital
Идентификатор кодека : A_AC3
Продолжительность : 1 ч. 36 м.
Вид битрейта : Постоянный
Битрейт : 192 Кбит/сек
Каналы : 2 канала
ChannelLayout : L R
Частота : 48,0 КГц
Частота кадров : 31,250 кадров/сек (1536 SPF)
Метод сжатия : С потерями
Размер потока : 132 Мбайт (1%)
Заголовок : MVO т/к Россия
Язык : Russian
ServiceKind/String : Complete Main
Default : Да
Forced : Нет

Аудио #2
Идентификатор : 3
Формат : DTS
Формат/Информация : Digital Theater Systems
Идентификатор кодека : A_DTS
Продолжительность : 1 ч. 36 м.
Вид битрейта : Постоянный
Битрейт : 768 Кбит/сек
Каналы : 2 канала
ChannelLayout : L R
Частота : 48,0 КГц
Частота кадров : 93,750 кадра/сек (512 SPF)
Битовая глубина : 16 бит
Метод сжатия : С потерями
Размер потока : 529 Мбайт (4%)
Заголовок : original
Язык : French
Default : Нет
Forced : Нет

Текст #1
Идентификатор : 4
Формат : UTF-8
Идентификатор кодека : S_TEXT/UTF8
Идентификатор кодека/Информация : UTF-8 Plain Text
Продолжительность : 1 ч. 34 м.
Битрейт : 91 бит/сек
ElementCount : 1211
Размер потока : 63,4 Кбайт (0%)
Заголовок : русские
Язык : Russian
Default : Нет
Forced : Нет

Текст #2
Идентификатор : 5
Формат : UTF-8
Идентификатор кодека : S_TEXT/UTF8
Идентификатор кодека/Информация : UTF-8 Plain Text
Продолжительность : 1 ч. 34 м.
Битрейт : 48 бит/сек
ElementCount : 1199
Размер потока : 33,9 Кбайт (0%)
Заголовок : внглийские
Язык : English
Default : Нет
Forced : Нет

Меню
00:00:00.000 : :Chapter 1
00:08:17.750 : :Chapter 2
00:16:03.082 : :Chapter 3
00:24:19.000 : :Chapter 4
00:31:57.000 : :Chapter 5
00:42:14.916 : :Chapter 6
00:51:09.375 : :Chapter 7
00:57:43.750 : :Chapter 8
01:06:19.375 : :Chapter 9
01:11:29.500 : :Chapter 10
01:19:49.707 : :Chapter 11
01:27:19.541 : :Chapter 12
01:36:14.750 : :Chapter 13
pb.wtf



Скачать Несколько слишком спокойных господ через торрент https://c.radikal.ru/c15/1910/b5/5e1951f12cea.jpg Скачать фильм Несколько слишком спокойных господ через торрент бесплантно в хорошем качестве О фильме: Чтобы спасти свою деревню от окончательного запустения, местные жители из кожи вон лезут, стараясь заманить туристов. Но, на их ... 5 10 1
Торрент: Зарегистрирован [2019-10-08 05:44] · скачан: 1 раз
Статус: √ проверено
Размер: 13.22 GB
Как cкачать? Как скачать Несколько слишком спокойных господ через торрент | qTorrent

% Раздел Тема Автор DL S | L
Классика зарубежного кино [ 4.32 GB ] Несколько слишком спокойных господ / Quelques Messieurs Trop Tranquilles [1973 BDRip 720p by msltel] MVO msltel Скачать
2 | 0
Классика зарубежного кино [ 2.25 GB ] Несколько слишком спокойных господ / Quelques Messieurs Trop Tranquilles [1973 BDRip by msltel] MVO msltel Скачать
2 | 0


>> Регистрируемся здесь <<






Отзывы и комментарии о схеме читаем и пишем здесь: ---> Отзывы и комментарии о схеме

Новые благодарочки в телеграм довольных пользователей:
скриншот   скриншот   скриншот   скриншот   скриншот
    Дорогой пользователь! Огромная просьба, поблагодарите релизера, оцените раздачу и оставьте свои комментарий, если Вы скачали Несколько слишком спокойных господ через торрент бесплатно! Внесите свою лепту в развитие PiratBit!
    Комментировать посты могут только пользователи прошедшие не сложную регистрацию
    Показать сообщения:    

    Несколько слишком спокойных господ через торрент
    Скачать бесплатно Несколько слишком спокойных господ
    Несколько слишком спокойных господ скачать торрент
    Несколько слишком спокойных господ смотреть онлайн
    Cкачать фильм Несколько слишком спокойных господ бесплатно
    Несколько слишком спокойных господ скачать торрент в хорошем качестве
    Несколько слишком спокойных господ смотреть онлайн бесплатно в хорошем качестве


    Вы не можете начинать темы
    Вы не можете отвечать на сообщения
    Вы не можете редактировать свои сообщения
    Вы не можете удалять свои сообщения
    Вы не можете голосовать в опросах
    Вы не можете прикреплять файлы к сообщениям
    Вы можете скачивать файлы