новый адрес
Мега распродажа FORZA HORIZON 4 ULTIMATE+ВСЕ DLC+ОНЛАЙН всего за 499р. 349 руб. (супер цена). Внимание количество ограничено!!!

iTunes

1+1

iTunes

мы

iTunes

1

iTunes

Чернобыль

iTunes

Ральф против интернета

Лицензия

ПШазам

Лицензия

Игра престолов

Лицензия

30
pack

ВАЖНО

!!Акция!!

Alien_RageХит недели

RePack

Resident Evil 21

ИГРА 18+

pack

RePack

Metro:Exodus

!!Акция!!

Alien_Rage

RePack

fifa19

RePack

Assassins Creed: Odyssey

RePack

NEED FOR SPEED™ PAYBACK

3 сезон

9 сезон

Бесстыжие 9 сезон

Все сериалы

все сериалы на PB.wtf

RePack

FAR CRY 5
Ребята, катастрофически не хватает 1900р. для оплаты серверов за Октябрь (всвязи с блокировками трафик упал в 3 раза), 1-2р., выручайте.
  

Голиаф / Goliath / Сезон: 3 / Серии: 1-8 из 8 (Лоуренс Триллинг) [2019, Драма, WEB-DL 720p] [MVO] (NewStudio) pb.wtf

Голиаф через торрент pb.wtf

Размер: 9.79 GB | Добавлен: 23 д. назад | Торрент скачан:6 раз
Скачать  

08-10-2019 15:39 Голиаф Скачать торрент  

Голиаф | Goliath
«***»

Производство: США
Год выпуска: 2019
Жанр: драма
Продолжительность: ~ 00:46:00 серия
Перевод: Профессиональный (многоголосый закадровый) | NewStudio
Режиссёр: Лоуренс Триллинг, Дэнни Гордон, Алик Сахаров
В ролях: Билли Боб Торнтон, Уильям Хёрт, Мария Белло, Оливия Тирлби, Нина Арианда
Описание:
В руки опального адвоката, гоняющегося за машинами скорой помощи в поисках новых клиентов, попадает дело, которое может принести ему искупление или, по крайней мере, возможность отомстить фирме, вышвырнувшей его на улицу.
rating

Качество видео: WEB-DL 720p
Формат: MKV
Видео: AVC, 1280 x 720 (1.778), 23.976 fps, ~2705 kbps
Аудио Rus: AC-3, 48 kHz, 6 ch, 384 kbps |NewStudio|
Аудио Eng: E-AC-3, 48 kHz, 6 ch, 640 kbps |Original|
Субтитры: Rus (Forced, Full), Eng
Реклама: Отсутствует

Общее
Уникальный идентификатор : 73041035400361541372195248960261562299 (0x36F33114DE0A70549E5F338F15979FBB)
Полное имя : E:\_Сериалы\_Сериалы\Голиаф\Goliath.s03.WEBDL.720p.NewStudio\Goliath.s03e01.WEBDL.720p.NewStudio.mkv
Формат : Matroska
Версия формата : Version 4
Размер файла : 1,20 Гбайт
Продолжительность : 46 м. 1 с.
Общий поток : 3731 Кбит/сек
Дата кодирования : UTC 2019-10-08 12:31:04
Программа кодирования : mkvmerge v38.0.0 ('The Silent Type') 64-bit
Библиотека кодирования : libebml v1.3.9 + libmatroska v1.5.2

Видео
Идентификатор : 1
Формат : AVC
Формат/Информация : Advanced Video Codec
Профиль формата : High@L3.1
Настройки формата : CABAC / 4 Ref Frames
Параметр CABAC формата : Да
Параметр RefFrames формата : 4 кадра
Идентификатор кодека : V_MPEG4/ISO/AVC
Продолжительность : 46 м. 1 с.
Вид битрейта : Постоянный
Битрейт : 2705 Кбит/сек
Номинальный битрейт : 6000 Кбит/сек
Ширина : 1280 пикселей
Высота : 720 пикселей
Соотношение сторон : 16:9
Режим частоты кадров : Постоянный
Частота кадров : 23,976 (24000/1001) кадра/сек
Цветовое пространство : YUV
Субдискретизация насыщенности : 4:2:0
Битовая глубина : 8 бит
Тип развёртки : Прогрессивная
Бит/(Пиксели*Кадры) : 0.122
Размер потока : 891 Мбайт (72%)
Язык : English
Default : Да
Forced : Нет
Цветовой диапазон : Limited
Основные цвета : BT.709
Характеристики трансфера : BT.709
Коэффициенты матрицы : BT.709

Аудио #1
Идентификатор : 2
Формат : AC-3
Формат/Информация : Audio Coding 3
Коммерческое название : Dolby Digital
Идентификатор кодека : A_AC3
Продолжительность : 46 м. 1 с.
Вид битрейта : Постоянный
Битрейт : 384 Кбит/сек
Каналы : 6 каналов
ChannelLayout : L R C LFE Ls Rs
Частота : 48,0 КГц
Частота кадров : 31,250 кадров/сек (1536 SPF)
Метод сжатия : С потерями
Размер потока : 126 Мбайт (10%)
Язык : Russian
ServiceKind/String : Complete Main
Default : Да
Forced : Нет

Аудио #2
Идентификатор : 3
Формат : E-AC-3
Формат/Информация : Enhanced AC-3
Коммерческое название : Dolby Digital Plus
Идентификатор кодека : A_EAC3
Продолжительность : 46 м. 1 с.
Вид битрейта : Постоянный
Битрейт : 640 Кбит/сек
Каналы : 6 каналов
ChannelLayout : L R C LFE Ls Rs
Частота : 48,0 КГц
Частота кадров : 31,250 кадров/сек (1536 SPF)
Метод сжатия : С потерями
Размер потока : 211 Мбайт (17%)
Язык : English
ServiceKind/String : Complete Main
Default : Нет
Forced : Нет

Текст #1
Идентификатор : 4
Формат : ASS
Идентификатор кодека : S_TEXT/ASS
Идентификатор кодека/Информация : Advanced Sub Station Alpha
Продолжительность : 38 м. 41 с.
Битрейт : 6 бит/сек
ElementCount : 25
Метод сжатия : Без потерь
Размер потока : 1,85 Кбайт (0%)
Заголовок : Forced
Язык : Russian
Default : Да
Forced : Да

Текст #2
Идентификатор : 5
Формат : UTF-8
Идентификатор кодека : S_TEXT/UTF8
Идентификатор кодека/Информация : UTF-8 Plain Text
Продолжительность : 43 м. 25 с.
Битрейт : 83 бит/сек
ElementCount : 502
Размер потока : 26,6 Кбайт (0%)
Язык : Russian
Default : Нет
Forced : Нет

Текст #3
Идентификатор : 6
Формат : UTF-8
Идентификатор кодека : S_TEXT/UTF8
Идентификатор кодека/Информация : UTF-8 Plain Text
Продолжительность : 43 м. 25 с.
Битрейт : 61 бит/сек
ElementCount : 674
Размер потока : 19,7 Кбайт (0%)
Язык : English
Default : Нет
Forced : Нет[/pre]

скриншот  скриншот  скриншот  

Раздача ведётся путём добавления новых серий; при каждом добавлении создаётся новый торрент.
Чтобы начать докачку новой серии, пользователям необходимо сделать следующее:
1. остановить скачивание,
2. удалить старый торрент у себя из клиента (старые серии удалять не надо),
3. скачать новый торрент и запустить его у себя в клиенте вместо старого, при этом указать клиенту путь в старую папку, куда и должно происходить скачивание новых серий.

Ваш клиент при этом должен произвести хеширование (проверку) старой папки (если не производит сам - помогите ему сделать это), и будет докачивать только те серии которых у вас ещё нет. Старые серии при этом не удаляются, а продолжают раздаваться!

Eсли вы уже удалили старые серии, то предотвратить повторную закачку старых серий можно, отжав галочку в соответствующих местах при запуске нового торрента. По возможности, желательно не удалять старые серии как можно дольше, чтобы релизёр не столько продолжал раздавать старые серии, а смог сконцентрироваться на новых.

Совет для тех, кто не хочет ждать перехеширования:
Создайте ещё одну папку рядом с папкой сериала (рядом, а не в ней!!!). Каждую новую серию после удачной загрузки копируйте в новую папку так чтобы ваша основная папка всегда была пуста. Когда ваш новый торрент предложит вам закачать все файлы, выберете только последнюю. Для сидирования же укажите адрес новой папки.

Как закачать отдельный файл из торрента или докачать ранее пропущенные файлы торрента!

1. Открыть торрент
2. Снять галки с тех файлов торрента, которые мы не хотим закачивать. Оставляем только на нужных нам файлах (файле).
3. Нажать О.К.

В клиенте utorrent

Инструкция

1) Открыть торрент


2) Снять галки с тех файлов торрента, которые мы не хотим закачивать:

* либо вручную, снимая с каждого файла галку( скрин №1)
* либо, нажав кнопку "Снять метки (Select None)", сняв сразу со всех файлов(скрин №2)
№1

№2

Оставляем только на нужных нам файлах (файле).

3)Нажать О.К

Приятного просмотра!!!pb.wtf



Скачать Голиаф через торрент https://i3.imageban.ru/out/2019/10/08/1be6c890416ea5e1f6afa7fe57bd98c9.png Скачать фильм Голиаф через торрент бесплантно в хорошем качестве Описание:В руки опального адвоката, гоняющегося за машинами скорой помощи в поисках новых клиентов, попадает дело, которое может принести ... 6.8 10 4
Торрент: Зарегистрирован [2019-10-25 09:52] · скачан: 6 раз
Статус: √ проверено
Размер: 9.79 GB
Как cкачать? Как скачать Голиаф через торрент | qTorrent

% Раздел Тема Автор DL S | L
Зарубежные сериалы [ 3.45 GB ] Голиаф / Goliath / Сезон: 3 / Серии: 1-2 из 8 [2019 WEBRip 720p] [DVO] killermax2013 Скачать
1 | 0
Зарубежные сериалы [ 19.67 GB ] Голиаф / Goliath / Сезон: 3 / Серии: 1-8 из 8 [2019 WEB-DL 1080p] MVO [TVShows] bober100 Скачать
1 | 0
Зарубежные сериалы [ 78.4 GB ] Голиаф / Goliath / Сезон: 3 / Серии: 1-8 из 8 [2019 UHD WEB-DL 2160p] MVO [TVShows] bober100 Скачать
1 | 0
Зарубежные сериалы [ 9.79 GB ] Голиаф / Goliath / Сезон: 3 / Серии: 1-8 из 8 [2019 WEB-DL 720p] MVO [TVShows] bober100 Скачать
1 | 1
Зарубежные сериалы [ 24.64 GB ] Голиаф / Goliath / Сезон: 3 / Серии: 1-8 из 8 [2019 WEBRip 1080p] MVO [Jaskier] bober100 Скачать
1 | 0
Зарубежные сериалы [ 4.7 GB ] Голиаф / Goliath / Сезон: 3 / Серии: 1-8 из 8 [2019 WEBRip] MVO [Jaskier] bober100 Скачать
3 | 1
Зарубежные сериалы [ 12.86 GB ] Голиаф / Goliath / Сезон: 3 / Серии: 1-8 из 8 [2019 WEBRip 720p] MVO [Jaskier] bober100 Скачать
3 | 1


>> Регистрируемся здесь <<






Отзывы и комментарии о схеме читаем и пишем здесь: ---> Отзывы и комментарии о схеме

Новые благодарочки в телеграм довольных пользователей:
скриншот   скриншот   скриншот   скриншот   скриншот
    Дорогой пользователь! Огромная просьба, поблагодарите релизера, оцените раздачу и оставьте свои комментарий, если Вы скачали Голиаф через торрент бесплатно! Внесите свою лепту в развитие PiratBit!
    Комментировать посты могут только пользователи прошедшие не сложную регистрацию
    Показать сообщения:    

    Голиаф через торрент
    Скачать бесплатно Голиаф
    Голиаф скачать торрент
    Голиаф смотреть онлайн
    Cкачать фильм Голиаф бесплатно
    Голиаф скачать торрент в хорошем качестве
    Голиаф смотреть онлайн бесплатно в хорошем качестве


    Вы не можете начинать темы
    Вы не можете отвечать на сообщения
    Вы не можете редактировать свои сообщения
    Вы не можете удалять свои сообщения
    Вы не можете голосовать в опросах
    Вы не можете прикреплять файлы к сообщениям
    Вы можете скачивать файлы