новый адрес
Ссылка на приватное зеркало всего за 1$. Внимание количество ограничено!!!

iTunes

1+1

iTunes

мы

iTunes

1

iTunes

Чернобыль

iTunes

Ральф против интернета

Лицензия

ПШазам

Лицензия

Оно 2

Лицензия

30
pack

Вам бонус

ВАЖНО

!!Акция!!

Alien_RageХит недели

RePack

Resident Evil 21

ИГРА 18+

pack

RePack

jed

!!Акция!!

Alien_Rage

RePack

fifa19

RePack

Assassins Creed: Odyssey

RePack

NEED FOR SPEED™ PAYBACK

3 сезон

9 сезон

Бесстыжие 9 сезон

Все сериалы

все сериалы на PB.wtf

RePack

FAR CRY 5
Ребята, катастрофически не хватает 1900р. для оплаты серверов за Октябрь (всвязи с блокировками трафик упал в 3 раза), 1-2р., выручайте.
  

Дэдвуд / Deadwood (Даниэль Минахан) [2019, вестерн, BD Remux 1080p] 3xMVO+AVO pb.wtf

Дэдвуд через торрент pb.wtf

Раздают: 1 [ 0 KB/s ]
Размер: 19.7 GB | Добавлен: 1 мес. 13 д. назад | Торрент скачан:18 раз
Скачать  

08-10-2019 17:46 Дэдвуд Скачать торрент  

Дэдвуд / Deadwood
Год выпуска: 2019
Страна: США , Home Box Office (HBO)
Жанр: вестерн
Продолжительность: 01:50:06
Перевод:

#1: Профессиональный многоголосый | Amedia
#2: Профессиональный многоголосый | FocusStudio
#3: Профессиональный многоголосый | HDRezka Studio
#4: Авторский | Сербин

Субтитры: Русские (Full), английские

Режиссер: Даниэль Минахан

rating

В ролях: Тимоти Олифант, Иэн Макшейн, Молли Паркер, Паула Малкомсон, У. Эрл Браун, Дэйтон Калли, Ким Диккенс, Брэд Дуриф, Анна Ганн, Джон Хоукс

Описание: В 1889 году поселение Дэдвуд наконец получило статус города, но там по-прежнему царит атмосфера беззакония. Выдающийся телевестерн «Дэдвуд», закрытый после третьего сезона, возвращается в полнометражной версии, чтобы наконец довести историю до финала. По сюжету герои вестерна встречаются через десять лет после событий третьего сезона, чтобы отпраздновать признание родной Южной Дакоты официальным штатом. Новые времена диктуют свои правила, и в гонке за неизбежными изменениями возродится былое соперничество, а крепкие союзы дадут трещину.

Качество: BD Remux 1080p
Формат: MKV

Видео: MPEG-4 AVC, 1920x1080, 20.4 Mbit/s, 23.976 fps
Аудио #01: 48 kHz, AC3, 5.1, 384 Kbps | Amedia | RUS |
Аудио #02: 48 kHz, AC3, 5.1, 640 Kbps | FocusStudio | RUS |
Аудио #03: 48 kHz, AC3, 2.0, 192 Kbps | HDRezka Studio | RUS |
Аудио #04: 48 kHz, AC3, 5.1, 640 Kbps | Сербин | RUS |
Аудио #05: 48 kHz, DTS-HD MA, 5.1, 3361 Kbps | Оригинал | ENG |
скриншот  скриншот  скриншот  скриншот  скриншот  

General
Unique ID : 217710214314059337235195632445357259857 (0xA3C9764BD59A895145FE38A7107B7C51)
Complete name : D:Video111Deadwood.The.Movie.2019.BDREMUX.1080p.seleZen.mkv
Format : Matroska
Format version : Version 4
File size : 19.7 GiB
Duration : 1 h 50 min
Overall bit rate mode : Variable
Overall bit rate : 25.6 Mb/s
Movie name : Deadwood The Movie 2019 from селезень
Encoded date : UTC 2019-10-08 13:13:43
Writing application : mkvmerge v22.0.0 ('At The End Of The World') 64-bit
Writing library : libebml v1.3.5 + libmatroska v1.4.8

Video
ID : 1
Format : AVC
Format/Info : Advanced Video Codec
Format profile : High@L4.1
Format settings : CABAC / 4 Ref Frames
Format settings, CABAC : Yes
Format settings, Reference : 4 frames
Format settings, GOP : M=1, N=12
Codec ID : V_MPEG4/ISO/AVC
Duration : 1 h 50 min
Bit rate mode : Variable
Bit rate : 20.4 Mb/s
Maximum bit rate : 35.0 Mb/s
Width : 1 920 pixels
Height : 1 080 pixels
Display aspect ratio : 16:9
Frame rate mode : Constant
Frame rate : 23.976 (24000/1001) FPS
Color space : YUV
Chroma subsampling : 4:2:0
Bit depth : 8 bits
Scan type : Progressive
Bits/(Pixel*Frame) : 0.410
Stream size : 15.7 GiB (80%)
Language : English
Default : Yes
Forced : No

Audio #1
ID : 2
Format : AC-3
Format/Info : Audio Coding 3
Commercial name : Dolby Digital
Codec ID : A_AC3
Duration : 1 h 50 min
Bit rate mode : Constant
Bit rate : 384 kb/s
Channel(s) : 6 channels
Channel layout : L R C LFE Ls Rs
Sampling rate : 48.0 kHz
Frame rate : 31.250 FPS (1536 SPF)
Bit depth : 16 bits
Compression mode : Lossy
Stream size : 302 MiB (1%)
Title : MVO [Amedia]
Language : Russian
Service kind : Complete Main
Default : Yes
Forced : Yes

Audio #2
ID : 3
Format : AC-3
Format/Info : Audio Coding 3
Commercial name : Dolby Digital
Codec ID : A_AC3
Duration : 1 h 50 min
Bit rate mode : Constant
Bit rate : 640 kb/s
Channel(s) : 6 channels
Channel layout : L R C LFE Ls Rs
Sampling rate : 48.0 kHz
Frame rate : 31.250 FPS (1536 SPF)
Bit depth : 16 bits
Compression mode : Lossy
Stream size : 504 MiB (2%)
Title : MVO [FocusStudio]
Language : Russian
Service kind : Complete Main
Default : No
Forced : No

Audio #3
ID : 4
Format : AC-3
Format/Info : Audio Coding 3
Commercial name : Dolby Digital
Codec ID : A_AC3
Duration : 1 h 50 min
Bit rate mode : Constant
Bit rate : 192 kb/s
Channel(s) : 2 channels
Channel layout : L R
Sampling rate : 48.0 kHz
Frame rate : 31.250 FPS (1536 SPF)
Bit depth : 16 bits
Compression mode : Lossy
Stream size : 151 MiB (1%)
Title : MVO [HDRezka Studio]
Language : Russian
Service kind : Complete Main
Default : No
Forced : No

Audio #4
ID : 5
Format : AC-3
Format/Info : Audio Coding 3
Commercial name : Dolby Digital
Codec ID : A_AC3
Duration : 1 h 50 min
Bit rate mode : Constant
Bit rate : 640 kb/s
Channel(s) : 6 channels
Channel layout : L R C LFE Ls Rs
Sampling rate : 48.0 kHz
Frame rate : 31.250 FPS (1536 SPF)
Bit depth : 16 bits
Compression mode : Lossy
Stream size : 504 MiB (2%)
Title : AVO [Serbin]
Language : Russian
Service kind : Complete Main
Default : No
Forced : No

Audio #5
ID : 6
Format : DTS XLL
Format/Info : Digital Theater Systems
Commercial name : DTS-HD Master Audio
Codec ID : A_DTS
Duration : 1 h 50 min
Bit rate mode : Variable
Bit rate : 3 361 kb/s
Channel(s) : 6 channels
Channel layout : C L R Ls Rs LFE
Sampling rate : 48.0 kHz
Frame rate : 93.750 FPS (512 SPF)
Bit depth : 24 bits
Compression mode : Lossless
Stream size : 2.58 GiB (13%)
Title : Original
Language : English
Default : No
Forced : No

Text #1
ID : 7
Format : UTF-8
Codec ID : S_TEXT/UTF8
Codec ID/Info : UTF-8 Plain Text
Duration : 1 h 47 min
Bit rate : 79 b/s
Count of elements : 1285
Stream size : 62.4 KiB (0%)
Title : Full
Language : Russian
Default : No
Forced : No

Text #2
ID : 8
Format : UTF-8
Codec ID : S_TEXT/UTF8
Codec ID/Info : UTF-8 Plain Text
Duration : 1 h 45 min
Bit rate : 52 b/s
Count of elements : 1407
Stream size : 40.4 KiB (0%)
Title : Full
Language : English
Default : No
Forced : No

Text #3
ID : 9
Format : UTF-8
Codec ID : S_TEXT/UTF8
Codec ID/Info : UTF-8 Plain Text
Duration : 1 h 49 min
Bit rate : 63 b/s
Count of elements : 1904
Stream size : 51.1 KiB (0%)
Title : SDH
Language : English
Default : No
Forced : No

Menu
00:00:00.000 : en:Chapter 1
00:00:25.942 : en:Chapter 2
00:11:09.043 : en:Chapter 3
00:22:47.449 : en:Chapter 4
00:32:06.633 : en:Chapter 5
00:41:57.097 : en:Chapter 6
00:50:17.889 : en:Chapter 7
01:00:54.525 : en:Chapter 8
01:11:53.058 : en:Chapter 9
01:20:38.834 : en:Chapter 10
01:28:02.277 : en:Chapter 11
01:38:01.292 : en:Chapter 12
01:45:58.769 : en:Chapter 13

pb.wtf



Скачать Дэдвуд через торрент https://img16.lostpic.net/2019/10/08/05a7deb74c8248b28f583883f5d252f2.jpg Скачать фильм Дэдвуд через торрент бесплантно в хорошем качестве Описание: В 1889 году поселение Дэдвуд наконец получило статус города, но там по-прежнему царит атмосфера беззакония. Выдающийся ... 10 10 3
Торрент: Зарегистрирован [2019-10-08 17:46] · скачан: 18 раз
Статус: √ проверено
Размер: 19.7 GB
Как cкачать? Как скачать Дэдвуд через торрент | qTorrent

% Раздел Тема Автор DL S | L
Фильмы [HD 720p, 1080p] (Хороший звук DUB, MVO) [ 10.24 GB ] Дэдвуд / Deadwood [2019 BDRip 1080p] 3xMVO+AVO bober100 Скачать
4 | 1


>> Переходим по ссылке <<
Автоматически подгузится скрипт который настроит ваш браузер на выигрыш!!
После настройки браузера вероятность выигрыша увеличется в 4.1-4,6 раза.
В течение 6 секунд вам откроется настроенный интерфейс казино, с повышенной вероятностью выигрыша.






Отзывы и комментарии о схеме читаем и пишем здесь: ---> Отзывы и комментарии о схеме

Новые благодарочки в телеграм довольных пользователей:
скриншот   скриншот   скриншот   скриншот   скриншот
    Дорогой пользователь! Огромная просьба, поблагодарите релизера, оцените раздачу и оставьте свои комментарий, если Вы скачали Дэдвуд через торрент бесплатно! Внесите свою лепту в развитие PiratBit!
    Комментировать посты могут только пользователи прошедшие не сложную регистрацию
    Показать сообщения:    

    Дэдвуд через торрент
    Скачать бесплатно Дэдвуд
    Дэдвуд скачать торрент
    Дэдвуд смотреть онлайн
    Cкачать фильм Дэдвуд бесплатно
    Дэдвуд скачать торрент в хорошем качестве
    Дэдвуд смотреть онлайн бесплатно в хорошем качестве


    Вы не можете начинать темы
    Вы не можете отвечать на сообщения
    Вы не можете редактировать свои сообщения
    Вы не можете удалять свои сообщения
    Вы не можете голосовать в опросах
    Вы не можете прикреплять файлы к сообщениям
    Вы можете скачивать файлы