1 сезон

1 сезон

iTunes

1

КиноПоиск HD

Кинопоиск HD

iTunes

13

1 сезон

RePack

30

Новинка

ВАЖНО

ИГРА 18+

pack

RePack

MK11
pack

Легкие деньги

RePack

jed

RePack

fifa19

RePack

RDR2

RePack

NEED FOR SPEED™ PAYBACK

4 сезон

9 сезон

Бесстыжие 9 сезон

Все сериалы

все сериалы на PB.wtf

RePack

FAR CRY 5
  
Magnet ссылка

Охота на Веронику / Veronica Guerin (Джоэл Шумахер) [2003, драма, криминал, биография, триллер, BDRip (AVC) by msltel] 2 x MVO pb.wtf

Охота на Веронику через торрент pb.wtf

Размер: 2.37 GB | Добавлен: 1 год 6 мес. назад | Торрент скачан:4 раза
Скачать  

09-10-2019 06:52 Охота на Веронику Скачать торрент  

Название: Охота на Веронику
Оригинальное название: Veronica Guerin
Год выпуска: 2003
Страна: Ирландия, Великобритания, США
Жанр: драма, криминал, биография, триллер
Продолжительность: 01:38:18
Перевод: профессиональный многоголосый

Режиссер: Джоэл Шумахер
В ролях: Кейт Бланшетт, Джерард МакСорли, Киаран Хайндс, Бренда Фрикер, Дон Вичерли, Бэрри Барнс, Саймон О’Дрискол, Эммет Бергин, Шарлотта Брэдли, Марк Лэмберт

О фильме: Репортёр газеты «Sunday Independent» Вероника Герин пишет о проблеме роста незаконного оборота наркотиков в Дублине. Её журналистское расследование затрагивает как проблему простых подростков-наркоманов, так и интересы крупных наркодельцов и постепенно заходит слишком далеко. На жизнь Вероники совершается покушение. Её осведомитель, чтобы спасти собственную шкуру и отвести подозрения от босса наркомафии Джона Гиллигана, начинает снабжать Веронику ложной информацией и в качестве отвлекающего манёвра сдаёт под видом крупной шишки преступника Джерри Хатча по кличке «Монах». Вероника начинает разрабатывать эту линию, но вскоре понимает, что Хатч слишком незначительное звено в цепи. Тем не менее, она продолжает своё расследование, и, в конце концов, боссы наркомафии отдают приказ устранить отважную журналистку... Фильм снят по реальной истории ирландской журналистки Вероники Герин, которая была приговорена наркобаронами к смерти и застрелена 26 июня 1996 года.



Качество: BDRip (AVC)
Формат: MKV
Видео: MPEG-4 AVC, 2427 Кбит/с, 1024x438, 23.976 кадр/с
Аудио 1: русский, AC3, 384 kbps, 6 ch, 48 kHz [закадровый многоголосый, R5 Видеосервис]
Аудио 2: русский, AC3, 192 kbps, 2 ch, 48 kHz [закадровый многоголосый, Первый канал]
Аудио 3: английский, AC3, 448 kbps, 6 ch, 48 kHz [оригинал]
Субтитры 1: русские
Субтитры 2: английские
Главы/чаптеры
Общее
Уникальный идентификатор : 196259758108375780482997804734145960707 (0x93A64127098B5170891000022EC11B03)
Полное имя : D:\Video\Охота на Веронику.2003.BDRip (AVC) by msltel.mkv
Формат : Matroska
Версия формата : Version 4
Размер файла : 2,37 Гбайт
Продолжительность : 1 ч. 38 м.
Общий поток : 3453 Кбит/сек
Название фильма : Rip by msltel
Дата кодирования : UTC 2019-10-09 04:47:20
Программа кодирования : mkvmerge v8.2.0 ('World of Adventure') 64bit
Библиотека кодирования : libebml v1.3.1 + libmatroska v1.4.2

Видео
Идентификатор : 1
Формат : AVC
Формат/Информация : Advanced Video Codec
Профиль формата : High@L4.1
Настройки формата : CABAC / 9 Ref Frames
Параметр CABAC формата : Да
Параметр RefFrames формата : 9 кадров
Идентификатор кодека : V_MPEG4/ISO/AVC
Продолжительность : 1 ч. 38 м.
Битрейт : 2427 Кбит/сек
Ширина : 1024 пикселя
Высота : 438 пикселей
Соотношение сторон : 2,35:1
Режим частоты кадров : Постоянный
Частота кадров : 23,976 (24000/1001) кадра/сек
Цветовое пространство : YUV
Субдискретизация насыщенности : 4:2:0
Битовая глубина : 8 бит
Тип развёртки : Прогрессивная
Бит/(Пиксели*Кадры) : 0.226
Размер потока : 1,67 Гбайт (70%)
Библиотека кодирования : x264 core 157 r2935 545de2f
Настройки программы : cabac=1 / ref=9 / deblock=1:-2:-2 / analyse=0x3:0x113 / me=umh / subme=11 / psy=1 / psy_rd=1.00:0.15 / mixed_ref=1 / me_range=32 / chroma_me=1 / trellis=2 / 8x8dct=1 / cqm=0 / deadzone=21,11 / fast_pskip=0 / chroma_qp_offset=-3 / threads=6 / lookahead_threads=1 / sliced_threads=0 / nr=0 / decimate=1 / interlaced=0 / bluray_compat=0 / constrained_intra=0 / bframes=8 / b_pyramid=2 / b_adapt=2 / b_bias=0 / direct=1 / weightb=1 / open_gop=0 / weightp=2 / keyint=230 / keyint_min=23 / scenecut=40 / intra_refresh=0 / rc_lookahead=40 / rc=crf / mbtree=1 / crf=16.2 / qcomp=0.60 / qpmin=0 / qpmax=69 / qpstep=4 / vbv_maxrate=50000 / vbv_bufsize=62500 / crf_max=0.0 / nal_hrd=none / filler=0 / ip_ratio=1.40 / aq=1:1.00
Язык : English
Default : Да
Forced : Нет

Аудио #1
Идентификатор : 2
Формат : AC-3
Формат/Информация : Audio Coding 3
Коммерческое название : Dolby Digital
Идентификатор кодека : A_AC3
Продолжительность : 1 ч. 38 м.
Вид битрейта : Постоянный
Битрейт : 384 Кбит/сек
Каналы : 6 каналов
ChannelLayout : L R C LFE Ls Rs
Частота : 48,0 КГц
Частота кадров : 31,250 кадров/сек (1536 SPF)
Метод сжатия : С потерями
Размер потока : 270 Мбайт (11%)
Заголовок : MVO R5 Видеосервис
Язык : Russian
ServiceKind/String : Complete Main
Default : Да
Forced : Нет

Аудио #2
Идентификатор : 3
Формат : AC-3
Формат/Информация : Audio Coding 3
Коммерческое название : Dolby Digital
Идентификатор кодека : A_AC3
Продолжительность : 1 ч. 38 м.
Вид битрейта : Постоянный
Битрейт : 192 Кбит/сек
Каналы : 2 канала
ChannelLayout : L R
Частота : 48,0 КГц
Частота кадров : 31,250 кадров/сек (1536 SPF)
Метод сжатия : С потерями
Размер потока : 135 Мбайт (6%)
Заголовок : MVO Первый канал
Язык : Russian
ServiceKind/String : Complete Main
Default : Нет
Forced : Нет

Аудио #3
Идентификатор : 4
Формат : AC-3
Формат/Информация : Audio Coding 3
Коммерческое название : Dolby Digital
Идентификатор кодека : A_AC3
Продолжительность : 1 ч. 38 м.
Вид битрейта : Постоянный
Битрейт : 448 Кбит/сек
Каналы : 6 каналов
ChannelLayout : L R C LFE Ls Rs
Частота : 48,0 КГц
Частота кадров : 31,250 кадров/сек (1536 SPF)
Метод сжатия : С потерями
Размер потока : 315 Мбайт (13%)
Заголовок : original
Язык : English
ServiceKind/String : Complete Main
Default : Нет
Forced : Нет

Текст #1
Идентификатор : 5
Формат : UTF-8
Идентификатор кодека : S_TEXT/UTF8
Идентификатор кодека/Информация : UTF-8 Plain Text
Продолжительность : 1 ч. 32 м.
Битрейт : 89 бит/сек
ElementCount : 895
Размер потока : 60,9 Кбайт (0%)
Заголовок : русские
Язык : Russian
Default : Нет
Forced : Нет

Текст #2
Идентификатор : 6
Формат : UTF-8
Идентификатор кодека : S_TEXT/UTF8
Идентификатор кодека/Информация : UTF-8 Plain Text
Продолжительность : 1 ч. 33 м.
Битрейт : 77 бит/сек
ElementCount : 1643
Размер потока : 53,1 Кбайт (0%)
Заголовок : английские
Язык : English
Default : Нет
Forced : Нет

Меню
00:00:00.000 : 00:00:00.000
00:12:10.730 : 00:12:10.730
00:22:38.647 : 00:22:38.647
00:35:56.404 : 00:35:56.404
00:51:08.774 : 00:51:08.774
01:01:50.456 : 01:01:50.456
01:14:27.963 : 01:14:27.963
01:24:33.359 : 01:24:33.359
pb.wtf



Скачать Охота на Веронику через торрент https://a.radikal.ru/a18/1910/ce/bddb5ffceb0b.jpg Скачать фильм Охота на Веронику через торрент бесплантно в хорошем качестве О фильме: Репортёр газеты «Sunday Independent» Вероника Герин пишет о проблеме роста незаконного оборота наркотиков в Дублине. Её ... 5 10 1
Торрент: Зарегистрирован [2019-10-09 06:52] · скачан: 4 раз
Статус: √ проверено
Размер: 2.37 GB
Как cкачать? Как скачать Охота на Веронику через торрент | UTorrent

% Раздел Тема Автор DL S | L
Фильмы [HD 720p, 1080p] (Хороший звук DUB, MVO) [ 3.68 GB ] Охота на Веронику / Veronica Guerin [2003 биография BDRip 720p by msltel] 2 x MVO msltel Скачать
1 | 0

28-11-2019 20:33  

Отключить всю рекламу на сайте

    Дорогой пользователь! Огромная просьба, поблагодарите релизера, оцените раздачу и оставьте свои комментарий, если Вы скачали Охота на Веронику через торрент бесплатно! Внесите свою лепту в развитие PiratBit!
    Комментировать посты могут только пользователи прошедшие не сложную регистрацию
    Показать сообщения:    

    Охота на Веронику через торрент
    Скачать бесплатно Охота на Веронику
    Охота на Веронику скачать торрент
    Охота на Веронику смотреть онлайн
    Cкачать фильм Охота на Веронику бесплатно
    Охота на Веронику скачать торрент в хорошем качестве
    Охота на Веронику смотреть онлайн бесплатно в хорошем качестве


    Вы не можете начинать темы
    Вы не можете отвечать на сообщения
    Вы не можете редактировать свои сообщения
    Вы не можете удалять свои сообщения
    Вы не можете голосовать в опросах
    Вы не можете прикреплять файлы к сообщениям
    Вы можете скачивать файлы