новый адрес пиратбит piratbit
Мега распродажа FORZA HORIZON 4 ULTIMATE+ВСЕ DLC+ОНЛАЙН всего за 499р. 349 руб. (супер цена). Внимание количество ограничено!!!

iTunes

1+1

iTunes

мы

iTunes

1

iTunes

Чернобыль

iTunes

Ральф против интернета

Лицензия

ПШазам

Лицензия

Игра престолов

Лицензия

30
pack

ВАЖНО

!!Акция!!

Alien_RageХит недели

RePack

Resident Evil 21

ИГРА 18+

pack

RePack

Metro:Exodus

!!Акция!!

Alien_Rage

RePack

fifa19

RePack

Assassins Creed: Odyssey

RePack

NEED FOR SPEED™ PAYBACK

3 сезон

9 сезон

Бесстыжие 9 сезон

Все сериалы

все сериалы на PB.wtf

RePack

FAR CRY 5
Ребята, катастрофически не хватает 1900р. для оплаты серверов за Октябрь (всвязи с блокировками трафик упал в 3 раза), 1-2р., выручайте.
  

Голиаф / Goliath / Сезон: 3 / Серии: 1-8 из 8 (Лоуренс Триллинг) [2019, Драма, UHD WEBRip 2160p] MVO [NewStudio] pb.wtf

Голиаф через торрент pb.wtf

Размер: 78.4 GB | Добавлен: 20 д. назад | Торрент скачан:1 раз
Скачать  

09-10-2019 09:40 Голиаф Скачать торрент  

Голиаф | Goliath
«***»
Производство: США
Год выпуска: 2019
Жанр: драма
Продолжительность: ~ 00:46:00 серия
Премьера (мир): 14 октября 2016
Перевод: Профессиональный (многоголосый закадровый) | NewStudio
Субтитры: Rus, Eng (SDH)

Режиссёр: Лоуренс Триллинг, Дэнни Гордон, Алик Сахаров

В ролях: Билли Боб Торнтон, Уильям Хёрт, Мария Белло, Оливия Тирлби, Нина Арианда

Описание:
В руки опального адвоката, гоняющегося за машинами скорой помощи в поисках новых клиентов, попадает дело, которое может принести ему искупление или, по крайней мере, возможность отомстить фирме, вышвырнувшей его на улицу.



Качество: UHD WEBRip 2160p
Формат: MKV

Видео: AVC, 3840 x 1608 (2.388), 23.976 fps, ~26400 kbps
Аудио Rus: AC-3, 48 kHz, 6 ch, 384 kbps |NewStudio|
Аудио Eng: E-AC-3, 48 kHz, 6 ch, 640 kbps |Original|


Реклама: Отсутствует
Общее
Уникальный идентификатор : 208887894910044485137181199728158601796 (0x9D26585DE52B11A99549543E8BEE7244)
Полное имя : E:\_Сериалы\_Сериалы\Голиаф\Goliath.s03.2160p.AMZN.WEBRip.NewStudio\Goliath.S03E01.2160p.AMZN.WEBRip.NewStudio.mkv
Формат : Matroska
Версия формата : Version 4
Размер файла : 8,80 Гбайт
Продолжительность : 46 м. 1 с.
Общий поток : 27,4 Мбит/сек
Дата кодирования : UTC 2019-10-09 08:04:24
Программа кодирования : mkvmerge v38.0.0 ('The Silent Type') 64-bit
Библиотека кодирования : libebml v1.3.9 + libmatroska v1.5.2

Видео
Идентификатор : 1
Формат : AVC
Формат/Информация : Advanced Video Codec
Профиль формата : High@L5.1
Настройки формата : CABAC / 7 Ref Frames
Параметр CABAC формата : Да
Параметр RefFrames формата : 7 кадров
Идентификатор кодека : V_MPEG4/ISO/AVC
Продолжительность : 46 м. 1 с.
Битрейт : 26,4 Мбит/сек
Ширина : 3840 пикселей
Высота : 1608 пикселей
Соотношение сторон : 2,40:1
Режим частоты кадров : Постоянный
Частота кадров : 23,976 (24000/1001) кадра/сек
Цветовое пространство : YUV
Субдискретизация насыщенности : 4:2:0
Битовая глубина : 8 бит
Тип развёртки : Прогрессивная
Бит/(Пиксели*Кадры) : 0.178
Размер потока : 8,47 Гбайт (96%)
Библиотека кодирования : x264 core 158 r2984+47 456d10a t_mod_New [0-bit@all X86_64]
Настройки программы : cabac=1 / ref=7 / deblock=1:-3:-3 / analyse=0x3:0x133 / me=umh / subme=10 / psy=1 / fade_compensate=0.00 / psy_rd=1.00:0.15 / mixed_ref=1 / me_range=48 / chroma_me=1 / trellis=2 / 8x8dct=1 / cqm=0 / deadzone=21,11 / fast_pskip=0 / chroma_qp_offset=-3 / threads=24 / lookahead_threads=4 / sliced_threads=0 / nr=0 / decimate=0 / interlaced=0 / bluray_compat=0 / constrained_intra=0 / fgo=0 / bframes=8 / b_pyramid=2 / b_adapt=2 / b_bias=0 / direct=3 / weightb=1 / open_gop=0 / weightp=2 / keyint=250 / keyint_min=23 / scenecut=40 / intra_refresh=0 / rc=crf / mbtree=0 / crf=18.0000 / qcomp=0.60 / qpmin=0:0:0 / qpmax=69:69:69 / qpstep=4 / ip_ratio=1.30 / pb_ratio=1.20 / aq=3:0.80 / aq-sensitivity=10.00 / aq-factor=1.00:1.00:1.00 / aq2=0 / aq3=0
Язык : English
Default : Да
Forced : Нет

Аудио #1
Идентификатор : 2
Формат : AC-3
Формат/Информация : Audio Coding 3
Коммерческое название : Dolby Digital
Идентификатор кодека : A_AC3
Продолжительность : 46 м. 1 с.
Вид битрейта : Постоянный
Битрейт : 384 Кбит/сек
Каналы : 6 каналов
ChannelLayout : L R C LFE Ls Rs
Частота : 48,0 КГц
Частота кадров : 31,250 кадров/сек (1536 SPF)
Метод сжатия : С потерями
Размер потока : 126 Мбайт (1%)
Язык : Russian
ServiceKind/String : Complete Main
Default : Да
Forced : Нет

Аудио #2
Идентификатор : 3
Формат : E-AC-3
Формат/Информация : Enhanced AC-3
Коммерческое название : Dolby Digital Plus
Идентификатор кодека : A_EAC3
Продолжительность : 46 м. 1 с.
Вид битрейта : Постоянный
Битрейт : 640 Кбит/сек
Каналы : 6 каналов
ChannelLayout : L R C LFE Ls Rs
Частота : 48,0 КГц
Частота кадров : 31,250 кадров/сек (1536 SPF)
Метод сжатия : С потерями
Размер потока : 211 Мбайт (2%)
Язык : English
ServiceKind/String : Complete Main
Default : Нет
Forced : Нет

Текст #1
Идентификатор : 4
Формат : UTF-8
Идентификатор кодека : S_TEXT/UTF8
Идентификатор кодека/Информация : UTF-8 Plain Text
Продолжительность : 43 м. 25 с.
Битрейт : 83 бит/сек
ElementCount : 502
Размер потока : 26,6 Кбайт (0%)
Язык : Russian
Default : Нет
Forced : Нет

Текст #2
Идентификатор : 5
Формат : UTF-8
Идентификатор кодека : S_TEXT/UTF8
Идентификатор кодека/Информация : UTF-8 Plain Text
Продолжительность : 43 м. 25 с.
Битрейт : 61 бит/сек
ElementCount : 674
Размер потока : 19,7 Кбайт (0%)
Заголовок : SDH
Язык : English
Default : Нет
Forced : Нет

Меню
00:00:00.000 : en:Amazon Original
00:00:05.000 : en:Previously On
00:01:29.000 : en:Life on a farm isn't easy
00:06:22.000 : en:Title Sequence
00:06:30.000 : en:Billy comes to help Gene
00:12:50.000 : en:Billy investigates the water board
00:18:10.000 : en:Looking for Wade Blackwood
00:30:15.000 : en:Peyote provides the answers
00:35:24.000 : en:A weird night at the casino hotel
00:43:33.000 : en:End Credits
Раздача ведётся путём добавления новых серий; при каждом добавлении создаётся новый торрент.
Чтобы начать докачку новой серии, пользователям необходимо сделать следующее:
1. остановить скачивание,
2. удалить старый торрент у себя из клиента (старые серии удалять не надо),
3. скачать новый торрент и запустить его у себя в клиенте вместо старого, при этом указать клиенту путь в старую папку, куда и должно происходить скачивание новых серий.

Ваш клиент при этом должен произвести хеширование (проверку) старой папки (если не производит сам - помогите ему сделать это), и будет докачивать только те серии которых у вас ещё нет. Старые серии при этом не удаляются, а продолжают раздаваться!

Eсли вы уже удалили старые серии, то предотвратить повторную закачку старых серий можно, отжав галочку в соответствующих местах при запуске нового торрента. По возможности, желательно не удалять старые серии как можно дольше, чтобы релизёр не столько продолжал раздавать старые серии, а смог сконцентрироваться на новых.

Совет для тех, кто не хочет ждать перехеширования:
Создайте ещё одну папку рядом с папкой сериала (рядом, а не в ней!!!). Каждую новую серию после удачной загрузки копируйте в новую папку так чтобы ваша основная папка всегда была пуста. Когда ваш новый торрент предложит вам закачать все файлы, выберете только последнюю. Для сидирования же укажите адрес новой папки.

Как закачать отдельный файл из торрента или докачать ранее пропущенные файлы торрента!
1. Открыть торрент
2. Снять галки с тех файлов торрента, которые мы не хотим закачивать. Оставляем только на нужных нам файлах (файле).
3. Нажать О.К.

В клиенте utorrent

Инструкция

1) Открыть торрент


2) Снять галки с тех файлов торрента, которые мы не хотим закачивать:

* либо вручную, снимая с каждого файла галку( скрин №1)
* либо, нажав кнопку "Снять метки (Select None)", сняв сразу со всех файлов(скрин №2)
№1

№2

Оставляем только на нужных нам файлах (файле).

3)Нажать О.К
Приятного просмотра!!!pb.wtf



Скачать Голиаф через торрент https://i3.imageban.ru/out/2019/10/08/1be6c890416ea5e1f6afa7fe57bd98c9.png Скачать фильм Голиаф через торрент бесплантно в хорошем качестве Описание:В руки опального адвоката, гоняющегося за машинами скорой помощи в поисках новых клиентов, попадает дело, которое может принести ... 10 10 2
Торрент: Зарегистрирован [2019-10-24 20:35] · скачан: 1 раз
Статус: √ проверено
Размер: 78.4 GB
Как cкачать? Как скачать Голиаф через торрент | qTorrent

% Раздел Тема Автор DL S | L
Зарубежные сериалы [ 3.45 GB ] Голиаф / Goliath / Сезон: 3 / Серии: 1-2 из 8 [2019 WEBRip 720p] [DVO] killermax2013 Скачать
1 | 0
Зарубежные сериалы [ 19.67 GB ] Голиаф / Goliath / Сезон: 3 / Серии: 1-8 из 8 [2019 WEB-DL 1080p] MVO [TVShows] bober100 Скачать
1 | 0
Зарубежные сериалы [ 78.4 GB ] Голиаф / Goliath / Сезон: 3 / Серии: 1-8 из 8 [2019 UHD WEB-DL 2160p] MVO [TVShows] bober100 Скачать
1 | 0
Зарубежные сериалы [ 9.79 GB ] Голиаф / Goliath / Сезон: 3 / Серии: 1-8 из 8 [2019 WEB-DL 720p] MVO [TVShows] bober100 Скачать
1 | 1
Зарубежные сериалы [ 24.64 GB ] Голиаф / Goliath / Сезон: 3 / Серии: 1-8 из 8 [2019 WEBRip 1080p] MVO [Jaskier] bober100 Скачать
2 | 0
Зарубежные сериалы [ 4.7 GB ] Голиаф / Goliath / Сезон: 3 / Серии: 1-8 из 8 [2019 WEBRip] MVO [Jaskier] bober100 Скачать
4 | 1
Зарубежные сериалы [ 12.86 GB ] Голиаф / Goliath / Сезон: 3 / Серии: 1-8 из 8 [2019 WEBRip 720p] MVO [Jaskier] bober100 Скачать
1 | 1


>> Регистрируемся здесь <<






Отзывы и комментарии о схеме читаем и пишем здесь: ---> Отзывы и комментарии о схеме

Новые благодарочки в телеграм довольных пользователей:
скриншот   скриншот   скриншот   скриншот   скриншот
    Дорогой пользователь! Огромная просьба, поблагодарите релизера, оцените раздачу и оставьте свои комментарий, если Вы скачали Голиаф через торрент бесплатно! Внесите свою лепту в развитие PiratBit!
    Комментировать посты могут только пользователи прошедшие не сложную регистрацию
    Показать сообщения:    

    Голиаф через торрент
    Скачать бесплатно Голиаф
    Голиаф скачать торрент
    Голиаф смотреть онлайн
    Cкачать фильм Голиаф бесплатно
    Голиаф скачать торрент в хорошем качестве
    Голиаф смотреть онлайн бесплатно в хорошем качестве


    Вы не можете начинать темы
    Вы не можете отвечать на сообщения
    Вы не можете редактировать свои сообщения
    Вы не можете удалять свои сообщения
    Вы не можете голосовать в опросах
    Вы не можете прикреплять файлы к сообщениям
    Вы можете скачивать файлы