Ссылка на приватное зеркало всего за 1$. Внимание количество ограничено!!!

OK

1+1

iTunes

мы

OK

1

WEB-DLRip

Джокер

Пифагор

Ведьмак / The Witcher сериал

iTunes

ПШазам

ОК

Оно 2

iTunes

30
pack

Вам бонус

ВАЖНО

!!Акция!!

Alien_RageХит недели

RePack

Resident Evil 21

ИГРА 18+

pack

RePack

jed

RePack

fifa19

RePack

Assassins Creed: Odyssey

RePack

NEED FOR SPEED™ PAYBACK

4 сезон

9 сезон

Бесстыжие 9 сезон

Все сериалы

все сериалы на PB.wtf

RePack

FAR CRY 5
  

Супердевушка / Супергёрл / Supergirl / Сезон: 5 / Серии: 1-10 из 22 (Джесси Уарн, Глен Винтер, Ларри Тенг) [2019, фантастика, боевик, драма, криминал, WEB-DL 1080p] MVO [LostFilm] pb.wtf

Супердевушка через торрент pb.wtf

Раздают: 1 [ 0 KB/s ] Качают: 1 [ 0 KB/s ]
Размер: 30.18 GB | Добавлен: 3 д. назад | Торрент скачан:1 раз
Скачать  

09-10-2019 09:51 Супердевушка Скачать торрент  

Супердевушка | Супергёрл | Supergirl Год выпуска: 2019
Страна: США
Жанр: фантастика, боевик, драма, криминал
Продолжительность: ~ 00:43:00
Перевод: Профессиональный (многоголосый закадровый) | LostFilm
Субтитры: Английские (SDH)

Режиссёр: Джесси Уарн, Глен Винтер, Ларри Тенг, Дермотт Даунс

В ролях: Дэвид Хэрвуд, Мелисса Бенойст, Андреа Брукс, Мехкад Брукс, Джесси Рат, Николь Эмбер Мейнс, Кайлер Ли, Ази Тесфай, Кэти МакГрат, Джули Гонсало, Кари Уолгрен, Фил ЛаМарр, Кэйт Микуччи, Стаз Наир, Нитин Прасад, Николас Дохи, Дженнифер Чжон

Описание:
«Супергёрл» — фантастический боевик от авторов таких популярных сериалов, как «Стрела» и «Флэш». В основу новинки положены графические романы издательства DC Comics. Сериал отличается впечатляющей хореографией боев, головокружительными трюками, потрясающей компьютерной графикой и спецэффектами, на создание которых канал CBS не пожалел средств. Визитной карточкой телешоу является отважная и жизнерадостная двоюродная сестра Супермена Кара (Мелисса Беноист). чьи большие голубые глаза и очаровательная улыбка способны покорить даже самые черствые сердца. Супергёрл существует в одной вселенной с Барри Алленом и Оливером Куином, что дает возможность этим героям вместе бороться со злом и несправедливостью.

Сюжет: Когда Криптон, родная планета 12-летней Кары Зор-Эл (Мелисса Беноист). была близка к разрушению, родители отправили свою дочь вслед за ее двоюродным братом Кал-Элом на Землю, чтобы она могла выжить и заодно защитить его от опасностей. Однако из-за взрывной волны корабль Кары попал в фантомную зону и прибыл на место назначения, когда Кал уже вырос, превратился в Супермена и перестал нуждаться в ее опеке. Много лет Кара жила в мире людей, вынужденная подавлять свою суперсилу и скрывать истинную сущность, прозябая в тени легендарного брата. Повзрослев и став красивой, умной женщиной, она устроилась на работу, где изо дня в день занимается тем, что разносит кофе и документы. Такая рутина не подходит Каре — она чувствует, что губит свой потенциал. Но все меняется, когда девушка проявляет неординарные способности, спасая от неминуемого крушения самолет, на борту которого находится ее сводная сестра Алекс (Кайлер Ли). Прозванная газетчиками «Супергёрл», Кара загорается желанием защищать жителей города от преступности. Теперь ее ждут невероятные приключения, которые принесут девушке не меньшую славу, чем у самого Человека из стали. Однако столь желанная жизнь таит в себе и множество смертельных опасностей, ведь за хрупкой представительницей дома Эл охотятся самые свирепые головорезы Вселенной...



Качество: WEB-DL 1080p | Supergirl.S05.1080p.Amazon.WEB-DL.DD+5.1.H.264-QOQ
Формат: MKV

Видео: AVC, ~ 9086 kbps, 1920x1080 (16:9), 23.976 fps
Аудио 1: AC3, 48,0 КГц, 2 ch, 384 kbps - Rus
Аудио 2: E-AC3, 48,0 КГц, 6 ch, 640 kbps - Eng


Реклама: Отсутствует

Спасибо:
01. Горизонт событий | Event Horizon

Анонс:

02. Stranger Beside Me (13.10.2019)
03. Blurred Lines (20.10.2019)
04. In Plain Sight (27.10.2019)
05. Dangerous Liaisons (03.11.2019)
06. Confidence Women (10.11.2019)
07. Tremors (17.11.2019)
08. The Wrath of Rama Khan
09. Crisis on Infinite Earth: Hour One (08.12.2019)
10.
11.
12.
13.
Общее
Уникальный идентификатор                 : 269841131294279416743286151988954270881 (0xCB0182F1942403727239D62203A00CA1)
Полное имя                               : E:\RELEASE\Supergirl.S05.1080p.WEB-DL.LostFilm\Supergirl.S05E01.Event.Horizon.1080p.WEB-DL.LostFilm.mkv
Формат                                   : Matroska
Версия формата                           : Version 4
Размер файла                             : 3,00 Гбайт
Продолжительность                        : 42 м. 22 с.
Общий поток                              : 10,1 Мбит/сек
Название фильма                          : Горизонт событий
Дата кодирования                         : UTC 2019-10-09 08:43:37
Программа кодирования                    : mkvmerge v37.0.0 ('Leave It') 64-bit
Библиотека кодирования                   : libebml v1.3.9 + libmatroska v1.5.2
Attachments                              : poster.supergirl_s5.png

Видео
Идентификатор                            : 1
Формат                                   : AVC
Формат/Информация                        : Advanced Video Codec
Профиль формата                          : High@L4
Настройки формата                        : CABAC / 4 Ref Frames
Параметр CABAC формата                   : Да
Параметр RefFrames формата               : 4 кадра
Идентификатор кодека                     : V_MPEG4/ISO/AVC
Продолжительность                        : 42 м. 22 с.
Вид битрейта                             : Постоянный
Битрейт                                  : 9086 Кбит/сек
Номинальный битрейт                      : 10000 Кбит/сек
Ширина                                   : 1920 пикселей
Высота                                   : 1080 пикселей
Соотношение сторон                       : 16:9
Режим частоты кадров                     : Постоянный
Частота кадров                           : 23,976 (24000/1001) кадра/сек
Цветовое пространство                    : YUV
Субдискретизация насыщенности            : 4:2:0
Битовая глубина                          : 8 бит
Тип развёртки                            : Прогрессивная
Бит/(Пиксели*Кадры)                      : 0.183
Размер потока                            : 2,69 Гбайт (90%)
Язык                                     : English
Default                                  : Да
Forced                                   : Нет
Цветовой диапазон                        : Limited
Основные цвета                           : BT.709
Характеристики трансфера                 : BT.709
Коэффициенты матрицы                     : BT.709

Аудио #1
Идентификатор                            : 2
Формат                                   : AC-3
Формат/Информация                        : Audio Coding 3
Коммерческое название                    : Dolby Digital
Идентификатор кодека                     : A_AC3
Продолжительность                        : 42 м. 21 с.
Вид битрейта                             : Постоянный
Битрейт                                  : 384 Кбит/сек
Каналы                                   : 2 канала
ChannelLayout                            : L R
Частота                                  : 48,0 КГц
Частота кадров                           : 31,250 кадров/сек (1536 SPF)
Метод сжатия                             : С потерями
Размер потока                            : 116 Мбайт (4%)
Заголовок                                : AC3 2.0 @ 384 kbps - MVO, LostFilm
Язык                                     : Russian
ServiceKind/String                       : Complete Main
Default                                  : Да
Forced                                   : Нет

Аудио #2
Идентификатор                            : 3
Формат                                   : E-AC-3
Формат/Информация                        : Enhanced AC-3
Коммерческое название                    : Dolby Digital Plus
Идентификатор кодека                     : A_EAC3
Продолжительность                        : 42 м. 22 с.
Вид битрейта                             : Постоянный
Битрейт                                  : 640 Кбит/сек
Каналы                                   : 6 каналов
ChannelLayout                            : L R C LFE Ls Rs
Частота                                  : 48,0 КГц
Частота кадров                           : 31,250 кадров/сек (1536 SPF)
Метод сжатия                             : С потерями
Размер потока                            : 194 Мбайт (6%)
Заголовок                                : E-AC3 5.1 @ 640 kbps - Original
Язык                                     : English
ServiceKind/String                       : Complete Main
Default                                  : Нет
Forced                                   : Нет

Текст #1
Идентификатор                            : 4
Формат                                   : UTF-8
Идентификатор кодека                     : S_TEXT/UTF8
Идентификатор кодека/Информация          : UTF-8 Plain Text
Продолжительность                        : 41 м. 37 с.
Битрейт                                  : 86 бит/сек
ElementCount                             : 809
Размер потока                            : 26,3 Кбайт (0%)
Заголовок                                : Full
Язык                                     : English
Default                                  : Нет
Forced                                   : Нет

Текст #2
Идентификатор                            : 5
Формат                                   : UTF-8
Идентификатор кодека                     : S_TEXT/UTF8
Идентификатор кодека/Информация          : UTF-8 Plain Text
Продолжительность                        : 41 м. 56 с.
Битрейт                                  : 90 бит/сек
ElementCount                             : 863
Размер потока                            : 27,8 Кбайт (0%)
Заголовок                                : Full SDH
Язык                                     : English
Default                                  : Нет
Forced                                   : Нет
При каждом добавлении создаётся новый торрент. Чтобы начать докачку новой серии, пользователям необходимо сделать следующее:
- остановить скачивание;
- удалить старый торрент у себя из клиента (старые серии удалять не надо);
- скачать новый торрент и запустить его у себя в клиенте вместо старого, при этом указать клиенту путь в старую папку, куда и должно происходить скачивание новых серий.
pb.wtf



Скачать Супердевушка через торрент https://funkyimg.com/i/2XDqh.png Скачать фильм Супердевушка через торрент бесплантно в хорошем качестве Описание:«Супергёрл» — фантастический боевик от авторов таких популярных сериалов, как «Стрела» и «Флэш». В основу новинки положены ... 10 10 3
Торрент: Зарегистрирован [2020-01-22 10:09] · скачан: 1 раз
Статус: √ проверено
Размер: 30.18 GB
Как cкачать? Как скачать Супердевушка через торрент | qTorrent

28-11-2019 20:33  

Отключить всю рекламу на сайте

    Дорогой пользователь! Огромная просьба, поблагодарите релизера, оцените раздачу и оставьте свои комментарий, если Вы скачали Супердевушка через торрент бесплатно! Внесите свою лепту в развитие PiratBit!
    Комментировать посты могут только пользователи прошедшие не сложную регистрацию
    Показать сообщения:    

    Супердевушка через торрент
    Скачать бесплатно Супердевушка
    Супердевушка скачать торрент
    Супердевушка смотреть онлайн
    Cкачать фильм Супердевушка бесплатно
    Супердевушка скачать торрент в хорошем качестве
    Супердевушка смотреть онлайн бесплатно в хорошем качестве


    Вы не можете начинать темы
    Вы не можете отвечать на сообщения
    Вы не можете редактировать свои сообщения
    Вы не можете удалять свои сообщения
    Вы не можете голосовать в опросах
    Вы не можете прикреплять файлы к сообщениям
    Вы можете скачивать файлы