Ссылка на приватное зеркало всего за 1$. Внимание количество ограничено!!!


iTunes

1+1

iTunes

мы

WEB-DL

1

iTunes

Чернобыль

iTunes

Ральф против интернета

Лицензия

ПШазам

Лицензия

Оно 2

WEB-DL

30
pack

Вам бонус

ВАЖНО

!!Акция!!

Alien_RageХит недели

RePack

Resident Evil 21

ИГРА 18+

pack

RePack

jed

!!Акция!!

Alien_Rage

RePack

fifa19

RePack

Assassins Creed: Odyssey

RePack

NEED FOR SPEED™ PAYBACK

4 сезон

9 сезон

Бесстыжие 9 сезон

Все сериалы

все сериалы на PB.wtf

RePack

FAR CRY 5
Ребята, катастрофически не хватает 1900р. для оплаты серверов за Октябрь (всвязи с блокировками трафик упал в 3 раза), 1-2р., выручайте.
  

Мистер Робот / Mr. Robot / Сезон: 4 / Серии: 1-10 из 13 (Сэм Эсмейл) [2019, триллер, драма, криминал, WEB-DL 720p] MVO [Lostfilm] pb.wtf

Мистер Робот через торрент pb.wtf

Размер: 14.72 GB | Добавлен: 3 д. назад | Торрент скачан:0 раз
Скачать  

09-10-2019 13:10 Мистер Робот Скачать торрент  

Мистер Робот | Mr. Robot
«I'm crazy. This is crazy. I'm crazy»
Производство: США
Год выпуска: 2019
Жанр: триллер, драма, криминал
Продолжительность: ~ 01:00:00 серия
Премьера (мир): 17 марта 2015
Премьера (РФ): 6 февраля 2017
Перевод: Профессиональный (многоголосый закадровый) | Lostfilm
Субтитры: Русские, английские (SDH)

Режиссёр: Сэм Эсмейл, Джим МакКэй, Триша Брок

В ролях: Рами Малек, Кристиан Слэйтер, Карли Чаикин, Портия Даблдэй, Мартин Вальстрём, Майкл Кристофер, Грэйс Гаммер, Стефани Корнелиуссен, Б.Д. Вонг

Описание:
История молодого программиста Эллиота, страдающего социофобией и решившего, что единственный приемлемый для него способ взаимодействия с людьми — это профессия хакера. Таким образом, он быстро оказывается в том самом месте, где пересекаются интересы его работодателя — фирмы, занимающейся кибербезопасностью, — и подпольных организаций, которые пытаются его завербовать с целью обрушения самых могучих американских корпораций.



Качество: WEB-DL 720p
Формат: MKV
Видео: AVC, 1280 x 720 (1.778), 23.976 fps, ~3074 kbps
Аудио Rus: AC-3, 48 kHz, 6 ch, 384 kbps |Lostfilm|
Аудио Eng: E-AC-3, 48 kHz, 6 ch, 640 kbps |Original|


Реклама: Отсутствует
Общее
Уникальный идентификатор : 319219483987761057605820670227904648920 (0xF0276FB1A4F199E48B39A3855DF2D6D8)
Полное имя : E:\_Сериалы\_Сериалы\Мистер Робот\Mr.Robot.S04.720p.AMZN.WEB-DL.LostFilm\Mr.Robot.S04E01.720p.AMZN.WEB-DL.LostFilm.mkv
Формат : Matroska
Версия формата : Version 4
Размер файла : 1,75 Гбайт
Продолжительность : 1 ч. 0 м.
Общий поток : 4100 Кбит/сек
Дата кодирования : UTC 2019-10-09 09:35:37
Программа кодирования : mkvmerge v38.0.0 ('The Silent Type') 64-bit
Библиотека кодирования : libebml v1.3.9 + libmatroska v1.5.2

Видео
Идентификатор : 1
Формат : AVC
Формат/Информация : Advanced Video Codec
Профиль формата : High@L3.1
Настройки формата : CABAC / 4 Ref Frames
Параметр CABAC формата : Да
Параметр RefFrames формата : 4 кадра
Идентификатор кодека : V_MPEG4/ISO/AVC
Продолжительность : 1 ч. 0 м.
Вид битрейта : Постоянный
Битрейт : 3074 Кбит/сек
Номинальный битрейт : 6000 Кбит/сек
Ширина : 1280 пикселей
Высота : 720 пикселей
Соотношение сторон : 16:9
Режим частоты кадров : Постоянный
Частота кадров : 23,976 (24000/1001) кадра/сек
Цветовое пространство : YUV
Субдискретизация насыщенности : 4:2:0
Битовая глубина : 8 бит
Тип развёртки : Прогрессивная
Бит/(Пиксели*Кадры) : 0.139
Размер потока : 1,31 Гбайт (75%)
Язык : English
Default : Да
Forced : Нет
Цветовой диапазон : Limited
Основные цвета : BT.709
Характеристики трансфера : BT.709
Коэффициенты матрицы : BT.709

Аудио #1
Идентификатор : 2
Формат : AC-3
Формат/Информация : Audio Coding 3
Коммерческое название : Dolby Digital
Идентификатор кодека : A_AC3
Продолжительность : 1 ч. 0 м.
Вид битрейта : Постоянный
Битрейт : 384 Кбит/сек
Каналы : 2 канала
ChannelLayout : L R
Частота : 48,0 КГц
Частота кадров : 31,250 кадров/сек (1536 SPF)
Метод сжатия : С потерями
Размер потока : 168 Мбайт (9%)
Язык : Russian
ServiceKind/String : Complete Main
Default : Да
Forced : Нет

Аудио #2
Идентификатор : 3
Формат : E-AC-3
Формат/Информация : Enhanced AC-3
Коммерческое название : Dolby Digital Plus
Идентификатор кодека : A_EAC3
Продолжительность : 1 ч. 0 м.
Вид битрейта : Постоянный
Битрейт : 640 Кбит/сек
Каналы : 6 каналов
ChannelLayout : L R C LFE Ls Rs
Частота : 48,0 КГц
Частота кадров : 31,250 кадров/сек (1536 SPF)
Метод сжатия : С потерями
Размер потока : 279 Мбайт (16%)
Язык : English
ServiceKind/String : Complete Main
Default : Нет
Forced : Нет

Текст #1
Идентификатор : 4
Формат : UTF-8
Идентификатор кодека : S_TEXT/UTF8
Идентификатор кодека/Информация : UTF-8 Plain Text
Продолжительность : 1 ч. 0 м.
Битрейт : 56 бит/сек
ElementCount : 835
Размер потока : 25,1 Кбайт (0%)
Язык : English
Default : Нет
Forced : Нет

Текст #2
Идентификатор : 5
Формат : UTF-8
Идентификатор кодека : S_TEXT/UTF8
Идентификатор кодека/Информация : UTF-8 Plain Text
Продолжительность : 1 ч. 0 м.
Битрейт : 65 бит/сек
ElementCount : 1143
Размер потока : 28,9 Кбайт (0%)
Заголовок : SDH
Язык : English
Default : Нет
Forced : Нет
Раздача ведётся путём добавления новых серий; при каждом добавлении создаётся новый торрент.
Чтобы начать докачку новой серии, пользователям необходимо сделать следующее:
1. остановить скачивание,
2. удалить старый торрент у себя из клиента (старые серии удалять не надо),
3. скачать новый торрент и запустить его у себя в клиенте вместо старого, при этом указать клиенту путь в старую папку, куда и должно происходить скачивание новых серий.

Ваш клиент при этом должен произвести хеширование (проверку) старой папки (если не производит сам - помогите ему сделать это), и будет докачивать только те серии которых у вас ещё нет. Старые серии при этом не удаляются, а продолжают раздаваться!

Eсли вы уже удалили старые серии, то предотвратить повторную закачку старых серий можно, отжав галочку в соответствующих местах при запуске нового торрента. По возможности, желательно не удалять старые серии как можно дольше, чтобы релизёр не столько продолжал раздавать старые серии, а смог сконцентрироваться на новых.

Совет для тех, кто не хочет ждать перехеширования:
Создайте ещё одну папку рядом с папкой сериала (рядом, а не в ней!!!). Каждую новую серию после удачной загрузки копируйте в новую папку так чтобы ваша основная папка всегда была пуста. Когда ваш новый торрент предложит вам закачать все файлы, выберете только последнюю. Для сидирования же укажите адрес новой папки.

Как закачать отдельный файл из торрента или докачать ранее пропущенные файлы торрента!
1. Открыть торрент
2. Снять галки с тех файлов торрента, которые мы не хотим закачивать. Оставляем только на нужных нам файлах (файле).
3. Нажать О.К.

В клиенте utorrent

Инструкция

1) Открыть торрент


2) Снять галки с тех файлов торрента, которые мы не хотим закачивать:

* либо вручную, снимая с каждого файла галку( скрин №1)
* либо, нажав кнопку "Снять метки (Select None)", сняв сразу со всех файлов(скрин №2)
№1

№2

Оставляем только на нужных нам файлах (файле).

3)Нажать О.К
Приятного просмотра!!!pb.wtf



Скачать Мистер Робот через торрент https://i6.imageban.ru/out/2019/10/09/3fa85cd441eb0a4c099acbc103b06df7.png Скачать фильм Мистер Робот через торрент бесплантно в хорошем качестве Описание:История молодого программиста Эллиота, страдающего социофобией и решившего, что единственный приемлемый для него способ ... 10 10 3
Торрент: Зарегистрирован [2019-12-12 12:23] · скачан: 0 раз
Статус: √ проверено
Размер: 14.72 GB
Как cкачать? Как скачать Мистер Робот через торрент | qTorrent

% Раздел Тема Автор DL S | L
Зарубежные сериалы [ 28.65 GB ] Мистер Робот / Mr. Robot / Сезон: 4 / Серии: 1-9 из 13 [2019 WEB-DL 1080p] MVO [Lostfilm] bober100 Скачать
1 | 1
Зарубежные сериалы [ 29.43 GB ] Мистер Робот / Mr. Robot / Сезон: 4 / Серии: 1-10 из 13 [2019 WEB-DL 1080p] MVO [TVShows] bober100 Скачать
1 | 0
Зарубежные сериалы [ 13.72 GB ] Мистер Робот / Mr. Robot / Сезон: 4 / Серии: 1-10 из 13 [2019 WEB-DL 720p] MVO [TVShows] bober100 Скачать
1 | 0
Зарубежные сериалы [ 16.74 GB ] Мистер Робот / Mr. Robot / Сезон: 4 / Серии: 1-10 из 13 [2019 WEB-DL 720p] MVO [NewStudio] bober100 Скачать
1 | 0
Зарубежные сериалы [ 6.14 GB ] Мистер Робот / Mr. Robot / Сезон: 4 / Серии: 1-10 из 13 [2019 WEB-DLRip] MVO [Jaskier] bober100 Скачать
1 | 0
Зарубежные сериалы [ 28.81 GB ] Мистер Робот / Mr. Robot / Сезон: 4 / Серии: 1-10 из 13 [2019 WEB-DL 1080p] MVO [Jaskier] bober100 Скачать
1 | 0
Зарубежные сериалы [ 13.1 GB ] Мистер Робот / Mr. Robot / Сезон: 4 / Серии: 1-10 из 13 [2019 WEB-DL 720p] MVO [Jaskier] bober100 Скачать
1 | 0

28-11-2019 20:33  

Отключить всю рекламу на сайте

    Дорогой пользователь! Огромная просьба, поблагодарите релизера, оцените раздачу и оставьте свои комментарий, если Вы скачали Мистер Робот через торрент бесплатно! Внесите свою лепту в развитие PiratBit!
    Комментировать посты могут только пользователи прошедшие не сложную регистрацию
    Показать сообщения:    

    Мистер Робот через торрент
    Скачать бесплатно Мистер Робот
    Мистер Робот скачать торрент
    Мистер Робот смотреть онлайн
    Cкачать фильм Мистер Робот бесплатно
    Мистер Робот скачать торрент в хорошем качестве
    Мистер Робот смотреть онлайн бесплатно в хорошем качестве


    Вы не можете начинать темы
    Вы не можете отвечать на сообщения
    Вы не можете редактировать свои сообщения
    Вы не можете удалять свои сообщения
    Вы не можете голосовать в опросах
    Вы не можете прикреплять файлы к сообщениям
    Вы можете скачивать файлы