Ссылка на приватное зеркало всего за 1$. Внимание количество ограничено!!!


iTunes

1+1

iTunes

мы

WEB-DL

1

iTunes

Чернобыль

iTunes

Ральф против интернета

Лицензия

ПШазам

Лицензия

Оно 2

WEB-DL

30
pack

Вам бонус

ВАЖНО

!!Акция!!

Alien_RageХит недели

RePack

Resident Evil 21

ИГРА 18+

pack

RePack

jed

!!Акция!!

Alien_Rage

RePack

fifa19

RePack

Assassins Creed: Odyssey

RePack

NEED FOR SPEED™ PAYBACK

4 сезон

9 сезон

Бесстыжие 9 сезон

Все сериалы

все сериалы на PB.wtf

RePack

FAR CRY 5
Ребята, катастрофически не хватает 1900р. для оплаты серверов за Октябрь (всвязи с блокировками трафик упал в 3 раза), 1-2р., выручайте.
  

Мистер Робот / Mr. Robot / Сезон: 4 / Серии: 1-10 из 13 (Сэм Эсмейл) [2019, триллер, драма, криминал, WEB-DLRip] MVO [Jaskier] pb.wtf

Мистер Робот через торрент pb.wtf

Размер: 6.14 GB | Добавлен: 4 д. назад | Торрент скачан:0 раз
Скачать  

09-10-2019 14:35 Мистер Робот Скачать торрент  

✘ Мистер Робот | Mr. Robot ✘
«I'm crazy. This is crazy. I'm crazy»
✦ Производство: США
✦ Год выпуска: 2019
✦ Жанр: триллер, драма, криминал
✦ Продолжительность: ~ 01:00:00 серия
✦ Премьера (мир): 17 марта 2015
✦ Премьера (РФ): 6 февраля 2017
✦ Перевод: Профессиональный (многоголосый закадровый) | Jaskier
✦ Субтитры: отсутствуют

✦ Режиссёр: Сэм Эсмейл, Джим МакКэй, Триша Брок

В ролях: Рами Малек, Кристиан Слэйтер, Карли Чаикин, Портия Даблдэй, Мартин Вальстрём, Майкл Кристофер, Грэйс Гаммер, Стефани Корнелиуссен, Б.Д. Вонг

Описание:
История молодого программиста Эллиота, страдающего социофобией и решившего, что единственный приемлемый для него способ взаимодействия с людьми — это профессия хакера. Таким образом, он быстро оказывается в том самом месте, где пересекаются интересы его работодателя — фирмы, занимающейся кибербезопасностью, — и подпольных организаций, которые пытаются его завербовать с целью обрушения самых могучих американских корпораций.



Качество: WEB-DLRip
Формат: AVI | XviD

✦ Видео: ~ 3000 kbps | 1280x720 (16:9)
✦ Аудио Rus: mp3, 48.0 KHz, 2 ch, 128 kbps |Jaskier|
✦ Аудио Eng: mp3, 48.0 KHz, 2 ch, 128 kbps |Original|
скриншот  скриншот  скриншот  

Общее
Полное имя : Х:\Загрузки\Mr.Robot.S04E01.WEB-DLRip.Rus.Eng.Jaskier.avi
Формат : AVI
Формат/Информация : Audio Video Interleave
Размер файла : 728 Мбайт
Продолжительность : 1 ч. 0 м.
Общий поток : 1670 Кбит/сек
Программа кодирования : VirtualDubMod 1.5.10.3 | www.virtualdub-fr.org || (build 2550/release)
Библиотека кодирования : VirtualDubMod build 2550/release

Видео
Идентификатор : 0
Формат : MPEG-4 Visual
Профиль формата : Advanced Simple@L5
Настройки формата : BVOP1 / Custom Matrix
Параметр BVOP формата : 1
Параметр QPel формата : Нет
Параметр GMC формата : Без точки перехода
Параметр матрицы формата : Выборочная
Идентификатор кодека : XVID
Идентификатор кодека/Подсказка : XviD
Продолжительность : 1 ч. 0 м.
Битрейт : 1400 Кбит/сек
Ширина : 720 пикселей
Высота : 400 пикселей
Соотношение сторон : 16:9
Частота кадров : 23,976 (24000/1001) кадра/сек
Цветовое пространство : YUV
Субдискретизация насыщенности : 4:2:0
Битовая глубина : 8 бит
Тип развёртки : Прогрессивная
Метод сжатия : С потерями
Бит/(Пиксели*Кадры) : 0.203
Размер потока : 611 Мбайт (84%)
Библиотека кодирования : XviD 73

Аудио #1
Идентификатор : 1
Формат : MPEG Audio
Версия формата : Version 1
Профиль формата : Layer 3
Настройки формата : Joint stereo / MS Stereo
Идентификатор кодека : 55
Идентификатор кодека/Подсказка : MP3
Продолжительность : 1 ч. 0 м.
Вид битрейта : Постоянный
Битрейт : 128 Кбит/сек
Каналы : 2 канала
Частота : 48,0 КГц
Метод сжатия : С потерями
Размер потока : 55,8 Мбайт (8%)
Выравнивание : Соединение по промежуткам
Продолжительность промежутка : 42 мс. (1,00 видеокадр)
Время предзагрузки промежутка : 504 мс.

Аудио #2
Идентификатор : 2
Формат : MPEG Audio
Версия формата : Version 1
Профиль формата : Layer 3
Настройки формата : Joint stereo / MS Stereo
Идентификатор кодека : 55
Идентификатор кодека/Подсказка : MP3
Продолжительность : 1 ч. 0 м.
Вид битрейта : Постоянный
Битрейт : 128 Кбит/сек
Каналы : 2 канала
Частота : 48,0 КГц
Метод сжатия : С потерями
Размер потока : 55,8 Мбайт (8%)
Выравнивание : Соединение по промежуткам
Продолжительность промежутка : 42 мс. (1,00 видеокадр)
Время предзагрузки промежутка : 504 мс.

Когда раздача ведётся путём добавления новых серий, при каждом добавлении создётся новый торрент. Чтобы начать докачку новой серии, пользователям необходимо сделать следующее:
(1) остановить скачивание,
(2) удалить старый торрент у себя из клиента (старые серии удалять не надо),
(3) скачать новый торрент и запустить его у себя в клиенте вместо старого, при этом указать клиенту путь в старую папку, куда и должно происходить скачивание новых серий.
Ваш клиент при этом должен произвести хеширование (проверку) старой папки (если не производит сам - помогите ему сделать это), и будет докачивать только те серии, которых у вас ещё нет. Старые серии при этом не удаляются, а продолжают раздаваться!
Eсли вы уже удалили старые серии, то предотвратить повторную закачку старых серий можно, отжав галочку в соответсвующих местах при запуске нового торрента. По возможности, желательно не удалять старые серии как можно дольше, чтобы релизёр не столько продолжал раздавать старые серии, а смог сконцентрироваться на новых.
pb.wtf



Скачать Мистер Робот через торрент https://i90.fastpic.ru/big/2019/1009/5f/fdb3ef6f6e50427e877b1c34498a2e5f.png Скачать фильм Мистер Робот через торрент бесплантно в хорошем качестве Описание:История молодого программиста Эллиота, страдающего социофобией и решившего, что единственный приемлемый для него способ ... 10 10 4
Торрент: Зарегистрирован [2019-12-11 14:33] · скачан: 0 раз
Статус: √ проверено
Размер: 6.14 GB
Как cкачать? Как скачать Мистер Робот через торрент | qTorrent

% Раздел Тема Автор DL S | L
Зарубежные сериалы [ 28.65 GB ] Мистер Робот / Mr. Robot / Сезон: 4 / Серии: 1-9 из 13 [2019 WEB-DL 1080p] MVO [Lostfilm] bober100 Скачать
1 | 1
Зарубежные сериалы [ 29.43 GB ] Мистер Робот / Mr. Robot / Сезон: 4 / Серии: 1-10 из 13 [2019 WEB-DL 1080p] MVO [TVShows] bober100 Скачать
1 | 0
Зарубежные сериалы [ 13.72 GB ] Мистер Робот / Mr. Robot / Сезон: 4 / Серии: 1-10 из 13 [2019 WEB-DL 720p] MVO [TVShows] bober100 Скачать
1 | 0
Зарубежные сериалы [ 16.74 GB ] Мистер Робот / Mr. Robot / Сезон: 4 / Серии: 1-10 из 13 [2019 WEB-DL 720p] MVO [NewStudio] bober100 Скачать
1 | 0
Зарубежные сериалы [ 28.81 GB ] Мистер Робот / Mr. Robot / Сезон: 4 / Серии: 1-10 из 13 [2019 WEB-DL 1080p] MVO [Jaskier] bober100 Скачать
1 | 0
Зарубежные сериалы [ 13.1 GB ] Мистер Робот / Mr. Robot / Сезон: 4 / Серии: 1-10 из 13 [2019 WEB-DL 720p] MVO [Jaskier] bober100 Скачать
1 | 0
Зарубежные сериалы [ 14.72 GB ] Мистер Робот / Mr. Robot / Сезон: 4 / Серии: 1-10 из 13 [2019 WEB-DL 720p] MVO [Lostfilm] bober100 Скачать
2 | 0

28-11-2019 20:33  

Отключить всю рекламу на сайте

    Дорогой пользователь! Огромная просьба, поблагодарите релизера, оцените раздачу и оставьте свои комментарий, если Вы скачали Мистер Робот через торрент бесплатно! Внесите свою лепту в развитие PiratBit!
    Комментировать посты могут только пользователи прошедшие не сложную регистрацию
    Показать сообщения:    

    Мистер Робот через торрент
    Скачать бесплатно Мистер Робот
    Мистер Робот скачать торрент
    Мистер Робот смотреть онлайн
    Cкачать фильм Мистер Робот бесплатно
    Мистер Робот скачать торрент в хорошем качестве
    Мистер Робот смотреть онлайн бесплатно в хорошем качестве


    Вы не можете начинать темы
    Вы не можете отвечать на сообщения
    Вы не можете редактировать свои сообщения
    Вы не можете удалять свои сообщения
    Вы не можете голосовать в опросах
    Вы не можете прикреплять файлы к сообщениям
    Вы можете скачивать файлы