новый адрес
Ссылка на приватное зеркало всего за 1$. Внимание количество ограничено!!!

iTunes

1+1

iTunes

мы

iTunes

1

iTunes

Чернобыль

iTunes

Ральф против интернета

Лицензия

ПШазам

Лицензия

Оно 2

Лицензия

30
pack

Вам бонус

ВАЖНО

!!Акция!!

Alien_RageХит недели

RePack

Resident Evil 21

ИГРА 18+

pack

RePack

jed

!!Акция!!

Alien_Rage

RePack

fifa19

RePack

Assassins Creed: Odyssey

RePack

NEED FOR SPEED™ PAYBACK

3 сезон

9 сезон

Бесстыжие 9 сезон

Все сериалы

все сериалы на PB.wtf

RePack

FAR CRY 5
Ребята, катастрофически не хватает 1900р. для оплаты серверов за Октябрь (всвязи с блокировками трафик упал в 3 раза), 1-2р., выручайте.
  

Тайная жизнь домашних животных 2 / The Secret Life of Pets 2 (Крис Рено, Джонатан дель Валь) [2019, мультфильм, комедия, приключения, семейный, UHD BDRip 2160p] DUB (rus, ukr) [Лицензия] +MVO [HDRezka Studio] pb.wtf

Тайная жизнь домашних животных 2 через торрент pb.wtf

Раздают: 1 [ 0 KB/s ]
Размер: 8.58 GB | Добавлен: 1 мес. 11 д. назад | Торрент скачан:32 раза
Скачать  

11-10-2019 01:40 Тайная жизнь домашних животных 2 Скачать торрент  

Тайная жизнь домашних животных 2
The Secret Life of Pets 2
«Обхохочешься»
Страна: США, Франция, Япония
Жанр: мультфильм, комедия, приключения, семейный
Продолжительность: 01:26:03
Год выпуска: 2019
Перевод:

Дублированный | Лицензия
Профессиональный многоголосый | HDRezka Studio

Субтитры: Русские (Forced, full), английские

Режиссёр: Крис Рено / Chris Renaud, Джонатан дель Валь / Jonathan del Val

rating

В ролях:

Пэттон Освальт (Max, озвучка), Кевин Харт (Snowball, озвучка), Харрисон Форд (Rooster, озвучка), Эрик Стоунстрит (Duke, озвучка), Дженни Слейт (Gidget, озвучка), Тиффани Хэддиш (Daisy, озвучка), Лэйк Белл (Chloe, озвучка), Дэна Карви (Pops, озвучка), Бобби Мойнахан (Mel, озвучка), Хэннибал Бёресс (Buddy, озвучка), Крис Рено (Norman / дополнительные голоса, озвучка), Элли Кемпер (Katie, озвучка)
Описание: Почему человек так долго спит утром? Чем вкусно пахнет? Дай мне, дай, дай, дай! Как заставить человека чесать за ушком весь день? Ой, что это? Ааай, опять мой хвост! Где взять еще вкусняшек? О, мячик-мячик-мячик! Узнайте, что действительно беспокоит ваших животных.

Качество: UHD BDRip 2160p
Формат: MKV

Видео: HEVC HDR, 9418 Кбит/с, 3840x2076, 23.976 кадр/с, 10 Бит
Аудио#1: 48 kHz, AC3, 5.1, 640 Kbps | Дублированный | RUS |
Аудио#2: 48 kHz, AC3, 2.0, 192 Kbps | HDRezka Studio | RUS |
Аудио#3: 48 kHz, AC3, 2.0, 192 Kbps | Дублированный | UKR |
Аудио#4: 48 kHz, TrueHD, 7.1, 3318 Kbps | Оригинал | ENG |
Аудио#5: 48 kHz, AC3, 5.1, 448 Kbps | Оригинал | ENG |

Общее
Уникальный идентификатор : 206780983511373777980561753608111255100 (0x9B90919D5D47AD59ADA114DE1233EE3C)
Полное имя : F:\The.Secret.Life.of.Pets.2.2019.2160p.x265.10bit.HDR.Master5.mkv
Формат : Matroska
Версия формата : Version 4
Размер файла : 8,58 Гбайт
Продолжительность : 1 ч. 26 м.
Режим общего битрейта : Переменный
Общий поток : 14,3 Мбит/сек
Название фильма : The.Secret.Life.of.Pets.2.2019.2160p.x265.10bit.HDR.Master5
Дата кодирования : UTC 2019-10-10 15:02:24
Программа кодирования : mkvmerge v7.9.0 ('Birds') 64bit
Библиотека кодирования : libebml v1.3.1 + libmatroska v1.4.2
Обложка : Yes
Attachments : cover_land.jpg / small_cover.jpg / small_cover_land.jpg / cover.jpg

Видео
Идентификатор : 1
Формат : HEVC
Формат/Информация : High Efficiency Video Coding
Коммерческое название : HDR10
Профиль формата : Main 10@L5.1@High
Идентификатор кодека : V_MPEGH/ISO/HEVC
Продолжительность : 1 ч. 26 м.
Битрейт : 9418 Кбит/сек
Ширина : 3840 пикселей
Высота : 2076 пикселей
Соотношение сторон : 1,85:1
Режим частоты кадров : Постоянный
Частота кадров : 23,976 (24000/1001) кадра/сек
Цветовое пространство : YUV
Субдискретизация насыщенности : 4:2:0 (Type 2)
Битовая глубина : 10 бит
Бит/(Пиксели*Кадры) : 0.049
Размер потока : 5,66 Гбайт (66%)
Заголовок : The.Secret.Life.of.Pets.2.2019.2160p.x265.10bit.HDR.Master5
Библиотека кодирования : x265 3.0_Au+10-74a8672ea4f7:[Windows][GCC 8.2.1][64 bit] 10bit
Настройки программы : cpuid=1111039 / frame-threads=16 / numa-pools=24,24,24,24 / wpp / no-pmode / no-pme / no-psnr / no-ssim / log-level=2 / input-csp=1 / input-res=3840x2076 / interlace=0 / total-frames=0 / level-idc=51 / high-tier=1 / uhd-bd=0 / ref=3 / no-allow-non-conformance / repeat-headers / annexb / aud / hrd / info / hash=0 / no-temporal-layers / no-open-gop / min-keyint=1 / keyint=24 / gop-lookahead=0 / bframes=6 / b-adapt=2 / b-pyramid / bframe-bias=0 / rc-lookahead=25 / lookahead-slices=4 / scenecut=40 / radl=0 / no-splice / no-intra-refresh / ctu=64 / min-cu-size=8 / no-rect / no-amp / max-tu-size=32 / tu-inter-depth=1 / tu-intra-depth=1 / limit-tu=0 / rdoq-level=0 / dynamic-rd=0.00 / no-ssim-rd / signhide / no-tskip / nr-intra=0 / nr-inter=0 / no-constrained-intra / strong-intra-smoothing / max-merge=2 / limit-refs=3 / no-limit-modes / me=1 / subme=2 / merange=57 / temporal-mvp / weightp / no-weightb / no-analyze-src-pics / deblock=1:1 / no-sao / no-sao-non-deblock / rd=3 / no-early-skip / rskip / no-fast-intra / no-tskip-fast / no-cu-lossless / no-b-intra / no-splitrd-skip / rdpenalty=0 / psy-rd=0.40 / psy-rdoq=0.00 / no-rd-refine / no-lossless / cbqpoffs=0 / crqpoffs=0 / rc=crf / crf=12.0 / qcomp=0.60 / qpstep=4 / stats-write=0 / stats-read=0 / vbv-maxrate=160000 / vbv-bufsize=160000 / vbv-init=0.9 / crf-max=0.0 / crf-min=0.0 / ipratio=1.40 / pbratio=1.30 / aq-mode=1 / aq-strength=0.40 / cutree / zone-count=0 / no-strict-cbr / qg-size=32 / no-rc-grain / qpmax=69 / qpmin=0 / no-const-vbv / sar=1 / overscan=0 / videoformat=5 / range=0 / colorprim=9 / transfer=16 / colormatrix=9 / chromaloc=1 / chromaloc-top=2 / chromaloc-bottom=2 / display-window=0 / master-display=G(13250,34500)B(7500,3000)R(34000,16000)WP(15635,16450)L(10000000,01) / max-cll=1000,412 / min-luma=0 / max-luma=1023 / log2-max-poc-lsb=8 / vui-timing-info / vui-hrd-info / slices=1 / opt-qp-pps / opt-ref-list-length-pps / no-multi-pass-opt-rps / scenecut-bias=0.05 / no-opt-cu-delta-qp / no-aq-motion / hdr / hdr-opt / no-dhdr10-opt / no-idr-recovery-sei / analysis-reuse-level=5 / scale-factor=0 / refine-intra=0 / refine-inter=0 / refine-mv=0 / refine-ctu-distortion=0 / no-limit-sao / ctu-info=0 / no-lowpass-dct / refine-analysis-type=-6419504 / copy-pic=1 / max-ausize-factor=1.0 / no-dynamic-refine / no-single-sei / no-hevc-aq / no-svt / qp-adaptation-range=1.00
Default : Да
Forced : Нет
Цветовой диапазон : Limited
Основные цвета : BT.2020
Характеристики трансфера : PQ
Коэффициенты матрицы : BT.2020 non-constant
MasteringDisplay_ColorPrimaries : Display P3
MasteringDisplay_Luminance : min: 0.0001 cd/m2, max: 1000 cd/m2
MaxCLL : 1000 cd/m2
MaxFALL : 412 cd/m2

Аудио #1
Идентификатор : 2
Формат : AC-3
Формат/Информация : Audio Coding 3
Коммерческое название : Dolby Digital
Идентификатор кодека : A_AC3
Продолжительность : 1 ч. 26 м.
Вид битрейта : Постоянный
Битрейт : 640 Кбит/сек
Каналы : 6 каналов
Channel layout : L R C LFE Ls Rs
Частота : 48,0 КГц
Частота кадров : 31,250 кадров/сек (1536 SPF)
Битовая глубина : 16 бит
Метод сжатия : С потерями
Размер потока : 394 Мбайт (4%)
Заголовок : Dub License
Язык : Russian
ServiceKind/String : Complete Main
Default : Да
Forced : Да

Аудио #2
Идентификатор : 3
Формат : AC-3
Формат/Информация : Audio Coding 3
Коммерческое название : Dolby Digital
Идентификатор кодека : A_AC3
Продолжительность : 1 ч. 26 м.
Вид битрейта : Постоянный
Битрейт : 192 Кбит/сек
Каналы : 2 канала
Channel layout : L R
Частота : 48,0 КГц
Частота кадров : 31,250 кадров/сек (1536 SPF)
Битовая глубина : 16 бит
Метод сжатия : С потерями
Размер потока : 118 Мбайт (1%)
Заголовок : MVO HDRezka Studio
Язык : Russian
ServiceKind/String : Complete Main
Default : Нет
Forced : Нет

Аудио #3
Идентификатор : 4
Формат : AC-3
Формат/Информация : Audio Coding 3
Коммерческое название : Dolby Digital
Идентификатор кодека : A_AC3
Продолжительность : 1 ч. 26 м.
Вид битрейта : Постоянный
Битрейт : 192 Кбит/сек
Каналы : 2 канала
Channel layout : L R
Частота : 48,0 КГц
Частота кадров : 31,250 кадров/сек (1536 SPF)
Битовая глубина : 16 бит
Метод сжатия : С потерями
Размер потока : 118 Мбайт (1%)
Заголовок : Dub
Язык : Ukrainian
ServiceKind/String : Complete Main
Default : Нет
Forced : Нет

Аудио #4
Идентификатор : 5
Формат : MLP FBA 16-ch
Формат/Информация : Meridian Lossless Packing FBA with 16-channel presentation
Коммерческое название : Dolby TrueHD with Dolby Atmos
Идентификатор кодека : A_TRUEHD
Продолжительность : 1 ч. 26 м.
Вид битрейта : Переменный
Битрейт : 3318 Кбит/сек
Максимальный битрейт : 4644 Кбит/сек
Каналы : 8 каналов
Channel layout : L R C LFE Ls Rs Lb Rb
Частота : 48,0 КГц
Частота кадров : 1200,000 кадров/сек (40 SPF)
Метод сжатия : Без потерь
Размер потока : 1,99 Гбайт (23%)
Заголовок : Original
Язык : English
Default : Нет
Forced : Нет
Number of dynamic objects : 11
Bed channel count : 1 канал
Bed channel configuration : LFE

Аудио #5
Идентификатор : 6
Формат : AC-3
Формат/Информация : Audio Coding 3
Коммерческое название : Dolby Digital
Идентификатор кодека : A_AC3
Продолжительность : 1 ч. 26 м.
Вид битрейта : Постоянный
Битрейт : 448 Кбит/сек
Каналы : 6 каналов
Channel layout : L R C LFE Ls Rs
Частота : 48,0 КГц
Частота кадров : 31,250 кадров/сек (1536 SPF)
Битовая глубина : 16 бит
Метод сжатия : С потерями
Размер потока : 276 Мбайт (3%)
Язык : English
ServiceKind/String : Complete Main
Default : Нет
Forced : Нет

Текст #1
Идентификатор : 7
Формат : UTF-8
Идентификатор кодека : S_TEXT/UTF8
Идентификатор кодека/Информация : UTF-8 Plain Text
Продолжительность : 1 ч. 1 м.
Битрейт : 0 бит/сек
ElementCount : 8
Размер потока : 266 байт (0%)
Заголовок : Forced
Язык : Russian
Default : Да
Forced : Да

Текст #2
Идентификатор : 8
Формат : UTF-8
Идентификатор кодека : S_TEXT/UTF8
Идентификатор кодека/Информация : UTF-8 Plain Text
Продолжительность : 1 ч. 25 м.
Битрейт : 74 бит/сек
ElementCount : 1157
Размер потока : 46,9 Кбайт (0%)
Заголовок : Full
Язык : Russian
Default : Нет
Forced : Нет

Текст #3
Идентификатор : 9
Формат : UTF-8
Идентификатор кодека : S_TEXT/UTF8
Идентификатор кодека/Информация : UTF-8 Plain Text
Продолжительность : 1 ч. 25 м.
Битрейт : 53 бит/сек
ElementCount : 1324
Размер потока : 33,3 Кбайт (0%)
Заголовок : Full
Язык : English
Default : Нет
Forced : Нет

Меню
00:00:00.000 : :Chapter 01
00:05:35.209 : :Chapter 02
00:10:08.482 : :Chapter 03
00:13:26.972 : :Chapter 04
00:16:40.457 : :Chapter 05
00:19:57.613 : :Chapter 06
00:24:10.740 : :Chapter 07
00:28:16.403 : :Chapter 08
00:30:54.936 : :Chapter 09
00:35:15.780 : :Chapter 10
00:39:56.644 : :Chapter 11
00:45:47.995 : :Chapter 12
00:49:52.489 : :Chapter 13
00:56:55.662 : :Chapter 14
00:58:35.887 : :Chapter 15
01:02:49.599 : :Chapter 16
01:07:17.283 : :Chapter 17
01:12:49.490 : :Chapter 18
01:15:22.476 : :Chapter 19
01:18:10.686 : :Chapter 20

pb.wtf



Скачать Тайная жизнь домашних животных 2 через торрент https://a.radikal.ru/a26/1909/82/c8bb6c66fa26.png Скачать фильм Тайная жизнь домашних животных 2 через торрент бесплантно в хорошем качестве Описание: Почему человек так долго спит утром? Чем вкусно пахнет? Дай мне, дай, дай, дай! Как заставить человека чесать за ушком весь день? ... 10 10 4
Торрент: Зарегистрирован [2019-10-11 01:40] · скачан: 32 раз
Статус: √ проверено
Размер: 8.58 GB
Как cкачать? Как скачать Тайная жизнь домашних животных 2 через торрент | qTorrent

% Раздел Тема Автор DL S | L
Ultra HD (UHD: 2K, 4K, 8K) [ 16.92 GB ] Тайная жизнь домашних животных 2 / The Secret Life of Pets 2 [2019 мультфильм UHD BDRip 2160p] [SDR] DUB [] +MVO [HDRezka Studio] bober100 Скачать
1 | 0
3D Мультфильмы [ 6.78 GB ] Тайная жизнь домашних животных 2 3Д / The Secret Life of Pets 2 3D [2019 мультфильм BDRip 1080p] [Half OverUnder] DUB [] bober100 Скачать
3 | 0
Зарубежные Мультфильмы (BDRip 1080p, 720p, Blu-ray, BD-Remux) [ 26.16 GB ] Тайная жизнь домашних животных 2 / The Secret Life of Pets 2 [2019 мультфильм BD Remux 1080p] [2D/3D] bober100 Скачать
1 | 0
3D Мультфильмы [ 10.99 GB ] Тайная жизнь домашних животных 2 в 3Д / The Secret Life of Pets 2 3D [2019 мультфильм BDRip 1080p] OverUnder / Вертикальная стереопара serega768 Скачать
2 | 0
Ultra HD (UHD: 2K, 4K, 8K) [ 45.45 GB ] Тайная жизнь домашних животных 2 / The Secret Life of Pets 2 [2019 мультфильм UHD BDRemux 2160p] [Dolby Vision] DUB bober100 Скачать
1 | 0
Иностранные мультфильмы [ 745 MB ] Тайная жизнь домашних животных 2 / The Secret Life of Pets 2 [2019 Мультфильм HDRip] [ ] - ExKinoRay surikmas Скачать
10 | 0
Ultra HD (UHD: 2K, 4K, 8K) [ 46 GB ] Тайная жизнь домашних животных 2 / The Secret Life of Pets 2 [2019 мультфильм UHD BDRemux 2160p] [Dolby Vision TV] bober100 Скачать
1 | 0


>> Переходим по ссылке <<
Автоматически подгузится скрипт который настроит ваш браузер на выигрыш!!
После настройки браузера вероятность выигрыша увеличется в 4.1-4,6 раза.
В течение 6 секунд вам откроется настроенный интерфейс казино, с повышенной вероятностью выигрыша.






Отзывы и комментарии о схеме читаем и пишем здесь: ---> Отзывы и комментарии о схеме

Новые благодарочки в телеграм довольных пользователей:
скриншот   скриншот   скриншот   скриншот   скриншот
    Дорогой пользователь! Огромная просьба, поблагодарите релизера, оцените раздачу и оставьте свои комментарий, если Вы скачали Тайная жизнь домашних животных 2 через торрент бесплатно! Внесите свою лепту в развитие PiratBit!
    Комментировать посты могут только пользователи прошедшие не сложную регистрацию
    Показать сообщения:    

    Тайная жизнь домашних животных 2 через торрент
    Скачать бесплатно Тайная жизнь домашних животных 2
    Тайная жизнь домашних животных 2 скачать торрент
    Тайная жизнь домашних животных 2 смотреть онлайн
    Cкачать фильм Тайная жизнь домашних животных 2 бесплатно
    Тайная жизнь домашних животных 2 скачать торрент в хорошем качестве
    Тайная жизнь домашних животных 2 смотреть онлайн бесплатно в хорошем качестве


    Вы не можете начинать темы
    Вы не можете отвечать на сообщения
    Вы не можете редактировать свои сообщения
    Вы не можете удалять свои сообщения
    Вы не можете голосовать в опросах
    Вы не можете прикреплять файлы к сообщениям
    Вы можете скачивать файлы