новый адрес
Мега распродажа FORZA HORIZON 4 ULTIMATE+ВСЕ DLC+ОНЛАЙН всего за 499р. 349 руб. (супер цена). Внимание количество ограничено!!!

iTunes

1+1

iTunes

мы

iTunes

1

iTunes

Чернобыль

iTunes

Ральф против интернета

Лицензия

ПШазам

Лицензия

Игра престолов

Лицензия

30
pack

ВАЖНО

!!Акция!!

Alien_RageХит недели

RePack

Resident Evil 21

ИГРА 18+

pack

RePack

Metro:Exodus

!!Акция!!

Alien_Rage

RePack

fifa19

RePack

Assassins Creed: Odyssey

RePack

NEED FOR SPEED™ PAYBACK

3 сезон

9 сезон

Бесстыжие 9 сезон

Все сериалы

все сериалы на PB.wtf

RePack

FAR CRY 5
Ребята, катастрофически не хватает 1900р. для оплаты серверов за Октябрь (всвязи с блокировками трафик упал в 3 раза), 1-2р., выручайте.
  

Король Лев / The Lion King (Джон Фавро) [2019, мультфильм, мюзикл, драма, приключения, семейный, HDRip-AVC] DUB [iTunes] - ExKinoRay pb.wtf

Король Лев через торрент pb.wtf

Раздают: 1510 [ 24 MB/s ] Качают: 134 [ 40 MB/s ]
Размер: 2.02 GB | Добавлен: 1 мес. 6 д. назад | Торрент скачан:491 раз
Скачать  

11-10-2019 03:32 Король Лев Скачать торрент  

Оригинальное название: The Lion King
Год выхода: 2019
Жанр: Мультфильм, мюзикл, драма, приключения, семейный
Режиссер: Джон Фавро
Роли озвучивают: Джеймс Эрл Джонс, Дональд Гловер, Чиветел Эджиофор, Джон Оливер, Джон Кани, Элфри Вудард, Джейдон Маккрэри, Шахади Райт Джозеф, Пенни Джонсон, Кигэн-Майкл Ки

О фильме:
История об отважном львенке по имени Симба. Знакомые с детства герои взрослеют, влюбляются, познают себя и окружающий мир, совершают ошибки и делают правильный выбор.

rating

Страна: США
Студия: Fairview Entertainment, Walt Disney Pictures
Продолжительность: 01:58:15
Перевод: Профессиональный (полное дублирование) | iTunes

Формат: MKV
Качество: HDRip-AVC
Видео: MPEG-4 AVC, 1024x576 (16:9), 23.976 fps, 2055 Kbps, 0.145 bit/pixel
Аудио: 48 kHz, AC3, 5.1, 384 Kbps | iTunes | RUS |
Субтитры: Русские (full, SDH)
General
Unique ID : 209634862042683631711577683843584329573 (0x9DB634B097087F36BD7E4DA4DF6F8765)
Complete name : F:\The.Lion.King.2019.HDRip.AVC.ExKinoRay.mkv
Format : Matroska
Format version : Version 2
File size : 2.02 GiB
Duration : 1 h 58 min
Overall bit rate : 2 441 kb/s
Movie name : The Lion King 2019 from ExKinoRay
Encoded date : UTC 2019-10-11 02:56:40
Writing application : mkvmerge v5.6.0 ('Kenya Kane') built on May 27 2012 16:44:04
Writing library : libebml v1.2.3 + libmatroska v1.3.0

Video
ID : 1
Format : AVC
Format/Info : Advanced Video Codec
Format profile : High@L4.1
Format settings, CABAC : Yes
Format settings, ReFrames : 11 frames
Codec ID : V_MPEG4/ISO/AVC
Duration : 1 h 58 min
Bit rate : 2 055 kb/s
Width : 1 024 pixels
Height : 576 pixels
Display aspect ratio : 16:9
Frame rate mode : Constant
Frame rate : 23.976 (23976/1000) FPS
Color space : YUV
Chroma subsampling : 4:2:0
Bit depth : 8 bits
Scan type : Progressive
Bits/(Pixel*Frame) : 0.145
Stream size : 1.66 GiB (82%)
Title : Enigma
Writing library : x264 core 152 r2851 ba24899
Encoding settings : cabac=1 / ref=11 / deblock=1:-2:-2 / analyse=0x3:0x113 / me=umh / subme=10 / psy=1 / psy_rd=1.00:0.05 / mixed_ref=1 / me_range=32 / chroma_me=1 / trellis=2 / 8x8dct=1 / cqm=0 / deadzone=21,11 / fast_pskip=0 / chroma_qp_offset=-3 / threads=12 / lookahead_threads=3 / sliced_threads=0 / nr=0 / decimate=0 / interlaced=0 / bluray_compat=0 / constrained_intra=0 / bframes=10 / b_pyramid=2 / b_adapt=2 / b_bias=0 / direct=3 / weightb=1 / open_gop=0 / weightp=2 / keyint=240 / keyint_min=23 / scenecut=40 / intra_refresh=0 / rc=2pass / mbtree=0 / bitrate=2055 / ratetol=1.0 / qcomp=0.60 / qpmin=0 / qpmax=51 / qpstep=4 / cplxblur=20.0 / qblur=0.5 / ip_ratio=1.40 / pb_ratio=1.30 / aq=1:1.00
Language : English
Default : Yes
Forced : No
Color range : Limited
Color primaries : BT.709
Transfer characteristics : BT.709
Matrix coefficients : BT.709

Audio
ID : 2
Format : AC-3
Format/Info : Audio Coding 3
Mode extension : CM (complete main)
Format settings, Endianness : Big
Codec ID : A_AC3
Duration : 1 h 58 min
Bit rate mode : Constant
Bit rate : 384 kb/s
Channel(s) : 6 channels
Channel positions : Front: L C R, Side: L R, LFE
Sampling rate : 48.0 kHz
Frame rate : 31.250 FPS (1536 spf)
Compression mode : Lossy
Stream size : 325 MiB (16%)
Title : iTunes
Language : Russian
Default : Yes
Forced : No

Text #1
ID : 3
Format : UTF-8
Codec ID : S_TEXT/UTF8
Codec ID/Info : UTF-8 Plain Text
Title : Full
Language : Russian
Default : No
Forced : No

Text #2
ID : 4
Format : UTF-8
Codec ID : S_TEXT/UTF8
Codec ID/Info : UTF-8 Plain Text
Title : SDH
Language : Russian
Default : No
Forced : No

Menu
00:00:00.000 : en:1
00:04:49.174 : en:2
00:10:49.742 : en:3
00:17:46.366 : en:4
00:23:51.689 : en:5
00:29:58.806 : en:6
00:33:03.740 : en:7
00:37:07.984 : en:8
00:43:41.585 : en:9
00:50:46.009 : en:10
00:55:01.389 : en:11
00:59:47.133 : en:12
01:06:25.906 : en:13
01:14:30.765 : en:14
01:18:25.082 : en:15
01:23:06.571 : en:16
01:28:03.326 : en:17
01:33:09.548 : en:18
01:37:12.415 : en:19
01:44:37.860 : en:20
01:47:46.006 : en:21


Релиз от:

Автор релиза: pb.wtf



Скачать Король Лев через торрент https://i87.fastpic.ru/big/2019/1011/70/2cf383dc3b5c85f866bd1ce88f45cc70.jpg Скачать фильм Король Лев через торрент бесплантно в хорошем качестве О фильме:История об отважном львенке по имени Симба. Знакомые с детства герои взрослеют, влюбляются, познают себя и окружающий мир, ... 9.9 10 16
Info! Золотая раздача, скачанное не засчитывается.
Торрент: Зарегистрирован [2019-10-11 03:32] · скачан: 491 раз
Статус: √ проверено
Размер: 2.02 GB
Как cкачать? Как скачать Король Лев через торрент | qTorrent

% Раздел Тема Автор DL S | L
Зарубежные Мультфильмы (BDRip 1080p, 720p, Blu-ray, BD-Remux) [ 4.5 GB ] Король Лев / The Lion King [2019 мультфильм мюзикл BDRip 720p] - ExKinoRay Enigma2010 Скачать
521 | 25


>> Регистрируемся здесь <<






Отзывы и комментарии о схеме читаем и пишем здесь: ---> Отзывы и комментарии о схеме

Новые благодарочки в телеграм довольных пользователей:
скриншот   скриншот   скриншот   скриншот   скриншот

11-10-2019 04:00 Король Лев Скачать торрент  

Сколько можно снимать одно и то-же?Многократное повторение называется задротством) pb.wtf



11-10-2019 19:31 Король Лев Скачать торрент  

всем спасибо. немножко порыдали ,посмеялись. высокие технологии и всё такое... но... в мультике как-то эмоций побольше и мимика у героев побогаче. в 90-х да с гнусявым переводом... избаловали нас дубляжом, господа мои...pb.wtf



12-10-2019 09:26 Король Лев Скачать торрент  

Спасибо, что тогда мультик класс! что сейчас!pb.wtf



    Дорогой пользователь! Огромная просьба, поблагодарите релизера, оцените раздачу и оставьте свои комментарий, если Вы скачали Король Лев через торрент бесплатно! Внесите свою лепту в развитие PiratBit!
    Комментировать посты могут только пользователи прошедшие не сложную регистрацию
    Показать сообщения:    

    Король Лев через торрент
    Скачать бесплатно Король Лев
    Король Лев скачать торрент
    Король Лев смотреть онлайн
    Cкачать фильм Король Лев бесплатно
    Король Лев скачать торрент в хорошем качестве
    Король Лев смотреть онлайн бесплатно в хорошем качестве


    Вы не можете начинать темы
    Вы не можете отвечать на сообщения
    Вы не можете редактировать свои сообщения
    Вы не можете удалять свои сообщения
    Вы не можете голосовать в опросах
    Вы не можете прикреплять файлы к сообщениям
    Вы можете скачивать файлы