Ссылка на приватное зеркало всего за 1$. Внимание количество ограничено!!!

iTunes

iTunes

iTunes

1

iTunes

iTunes

iTunes

iTunes

iTunes

30
pack

$ от Little Big

ВАЖНО

!!Акция!!

Alien_RageХит недели

RePack

Resident Evil 21

ИГРА 18+

pack

RePack

jed

!!Акция!!

Alien_Rage

RePack

fifa19

RePack

Assassins Creed: Odyssey

RePack

NEED FOR SPEED™ PAYBACK

4 сезон

9 сезон

Бесстыжие 9 сезон

Все сериалы

все сериалы на PB.wtf

RePack

FAR CRY 5
  

Король Лев / The Lion King (Джон Фавро) [2019, мультфильм, мюзикл, драма, приключения, семейный, BDRip-AVC] DUB [Лицензия] - ExKinoRay pb.wtf

Король Лев через торрент pb.wtf

Раздают: 27 [ 0 KB/s ]
Размер: 2.36 GB | Добавлен: 7 мес. назад | Торрент скачан:488 раз
Скачать  

11-10-2019 03:32 Король Лев Скачать торрент  

Оригинальное название: The Lion King
Год выхода: 2019
Жанр: Мультфильм, мюзикл, драма, приключения, семейный
Режиссер: Джон Фавро
Роли озвучивают: Джеймс Эрл Джонс, Дональд Гловер, Чиветел Эджиофор, Джон Оливер, Джон Кани, Элфри Вудард, Джейдон Маккрэри, Шахади Райт Джозеф, Пенни Джонсон, Кигэн-Майкл Ки

О фильме:
История об отважном львенке по имени Симба. Знакомые с детства герои взрослеют, влюбляются, познают себя и окружающий мир, совершают ошибки и делают правильный выбор.

rating

Страна: США
Студия: Fairview Entertainment, Walt Disney Pictures
Продолжительность: 01:58:15
Перевод: Профессиональный (полное дублирование) | Лицензия

Формат: MKV
Качество: BDRip-AVC
Видео: MPEG-4 AVC, 1024x576 (16:9), 23.976 fps, 2055 Kbps, 0.145 bit/pixel
Аудио: 48 kHz, AC3, 5.1, 384 Kbps | Лицензия| RUS |
Субтитры: Русские (full, SDH), английские
General
Unique ID : 239585866800046876935920823880015764198 (0xB43E8F3C3156DF44A25A44ED44C55AE6)
Complete name : F:\The.Lion.King.2019.BDRip.AVC.ExKinoRay.mkv
Format : Matroska
Format version : Version 2
File size : 2.36 GiB
Duration : 1 h 58 min
Overall bit rate : 2 857 kb/s
Movie name : The Lion King 2019 from ExKinoRay
Encoded date : UTC 2019-11-26 20:02:38
Writing application : mkvmerge v5.6.0 ('Kenya Kane') built on May 27 2012 16:44:04
Writing library : libebml v1.2.3 + libmatroska v1.3.0

Video
ID : 1
Format : AVC
Format/Info : Advanced Video Codec
Format profile : High@L4.1
Format settings, CABAC : Yes
Format settings, ReFrames : 12 frames
Codec ID : V_MPEG4/ISO/AVC
Duration : 1 h 58 min
Bit rate : 2 405 kb/s
Width : 1 024 pixels
Height : 576 pixels
Display aspect ratio : 16:9
Frame rate mode : Constant
Frame rate : 23.976 (23976/1000) FPS
Color space : YUV
Chroma subsampling : 4:2:0
Bit depth : 8 bits
Scan type : Progressive
Bits/(Pixel*Frame) : 0.170
Stream size : 1.94 GiB (82%)
Title : Enigma
Writing library : x264 core 152 r2851 ba24899
Encoding settings : cabac=1 / ref=12 / deblock=1:-2:-2 / analyse=0x3:0x113 / me=umh / subme=10 / psy=1 / psy_rd=1.00:0.00 / mixed_ref=1 / me_range=32 / chroma_me=1 / trellis=2 / 8x8dct=1 / cqm=0 / deadzone=21,11 / fast_pskip=0 / chroma_qp_offset=-2 / threads=12 / lookahead_threads=3 / sliced_threads=0 / nr=0 / decimate=0 / interlaced=0 / bluray_compat=0 / constrained_intra=0 / bframes=11 / b_pyramid=2 / b_adapt=2 / b_bias=0 / direct=3 / weightb=1 / open_gop=0 / weightp=2 / keyint=240 / keyint_min=23 / scenecut=40 / intra_refresh=0 / rc=2pass / mbtree=0 / bitrate=2405 / ratetol=1.0 / qcomp=0.60 / qpmin=0 / qpmax=51 / qpstep=4 / cplxblur=20.0 / qblur=0.5 / ip_ratio=1.40 / pb_ratio=1.30 / aq=1:1.00
Language : English
Default : Yes
Forced : No
Color range : Limited
Color primaries : BT.709
Transfer characteristics : BT.709
Matrix coefficients : BT.709

Audio
ID : 2
Format : AC-3
Format/Info : Audio Coding 3
Mode extension : CM (complete main)
Format settings, Endianness : Big
Codec ID : A_AC3
Duration : 1 h 58 min
Bit rate mode : Constant
Bit rate : 448 kb/s
Channel(s) : 6 channels
Channel positions : Front: L C R, Side: L R, LFE
Sampling rate : 48.0 kHz
Frame rate : 31.250 FPS (1536 spf)
Compression mode : Lossy
Stream size : 379 MiB (16%)
Title : Dub (Blu-Ray)
Language : Russian
Default : Yes
Forced : No

Text #1
ID : 3
Format : UTF-8
Codec ID : S_TEXT/UTF8
Codec ID/Info : UTF-8 Plain Text
Title : Full
Language : Russian
Default : No
Forced : No

Text #2
ID : 4
Format : UTF-8
Codec ID : S_TEXT/UTF8
Codec ID/Info : UTF-8 Plain Text
Title : SDH
Language : Russian
Default : No
Forced : No

Text #3
ID : 5
Format : UTF-8
Codec ID : S_TEXT/UTF8
Codec ID/Info : UTF-8 Plain Text
Language : English
Default : No
Forced : No

Menu
00:00:00.000 : en:"Circle Of Life/Nants' Ingonyama"
00:04:50.499 : en:"Life's Not Fair"
00:10:51.067 : en:"Everything The Light Touches"
00:17:47.692 : en:"I Just Can't Wait To Be King"
00:23:53.015 : en:Elephant Graveyard
00:30:00.132 : en:Under The Stars
00:33:05.066 : en:"Be Prepared"
00:37:09.310 : en:Stampede
00:43:42.912 : en:Scar Takes Over
00:50:47.336 : en:Timon And Pumbaa
00:55:02.716 : en:"Hakuna Matata"
00:59:48.460 : en:Scar's Kingdom
01:06:27.233 : en:"Line Of Indifference"
01:14:32.093 : en:"The Lion Sleeps Tonight"
01:18:26.410 : en:"Can You Feel The Love Tonight"
01:23:07.900 : en:"He Lives In You"
01:28:04.654 : en:"Spirit"
01:33:10.877 : en:Simba Confronts Scar
01:37:13.745 : en:Battle For Pride Rock
01:44:39.190 : en:The Rightful King
01:47:47.336 : en:End Credits/"Never Too Late"


Релиз от:

Автор релиза: pb.wtf



Скачать Король Лев через торрент https://i87.fastpic.ru/big/2019/1011/70/2cf383dc3b5c85f866bd1ce88f45cc70.jpg Скачать фильм Король Лев через торрент бесплантно в хорошем качестве О фильме:История об отважном львенке по имени Симба. Знакомые с детства герои взрослеют, влюбляются, познают себя и окружающий мир, ... 10 10 22
Info! Золотая раздача, скачанное не засчитывается.
Торрент: Зарегистрирован [2019-11-26 21:22] · скачан: 488 раз
Статус: √ проверено
Размер: 2.36 GB
Как cкачать? Как скачать Король Лев через торрент | qTorrent

% Раздел Тема Автор DL S | L
Зарубежные Мультфильмы (BDRip 1080p, 720p, Blu-ray, BD-Remux) [ 4.71 GB ] Король Лев / The Lion King [2019 мультфильм мюзикл BDRip 720p] DUB [] - ExKinoRay Enigma2010 Скачать
213 | 21


Последний раз редактировалось: Enigma2010 (2019-11-26 21:22), всего редактировалось 2 раз(а)

28-11-2019 20:33  

Отключить всю рекламу на сайте

11-10-2019 04:00 Король Лев Скачать торрент  

Сколько можно снимать одно и то-же?Многократное повторение называется задротством) pb.wtf



11-10-2019 19:31 Король Лев Скачать торрент  

всем спасибо. немножко порыдали ,посмеялись. высокие технологии и всё такое... но... в мультике как-то эмоций побольше и мимика у героев побогаче. в 90-х да с гнусявым переводом... избаловали нас дубляжом, господа мои...pb.wtf



12-10-2019 09:26 Король Лев Скачать торрент  

Спасибо, что тогда мультик класс! что сейчас!pb.wtf



26-11-2019 21:23 Король Лев Скачать торрент  

Замена на лицензию.pb.wtf



    Дорогой пользователь! Огромная просьба, поблагодарите релизера, оцените раздачу и оставьте свои комментарий, если Вы скачали Король Лев через торрент бесплатно! Внесите свою лепту в развитие PiratBit!
    Комментировать посты могут только пользователи прошедшие не сложную регистрацию
    Показать сообщения:    

    Король Лев через торрент
    Скачать бесплатно Король Лев
    Король Лев скачать торрент
    Король Лев смотреть онлайн
    Cкачать фильм Король Лев бесплатно
    Король Лев скачать торрент в хорошем качестве
    Король Лев смотреть онлайн бесплатно в хорошем качестве


    Вы не можете начинать темы
    Вы не можете отвечать на сообщения
    Вы не можете редактировать свои сообщения
    Вы не можете удалять свои сообщения
    Вы не можете голосовать в опросах
    Вы не можете прикреплять файлы к сообщениям
    Вы можете скачивать файлы