новый адрес пиратбит piratbit
Мега распродажа FORZA HORIZON 4 ULTIMATE+ВСЕ DLC+ОНЛАЙН всего за 499р. 349 руб. (супер цена). Внимание количество ограничено!!!

iTunes

1+1

iTunes

мы

iTunes

1

iTunes

Чернобыль

iTunes

Ральф против интернета

Лицензия

ПШазам

Лицензия

Игра престолов

Лицензия

30
pack

ВАЖНО

!!Акция!!

Alien_RageХит недели

RePack

Resident Evil 21

ИГРА 18+

pack

RePack

Metro:Exodus

!!Акция!!

Alien_Rage

RePack

fifa19

RePack

Assassins Creed: Odyssey

RePack

NEED FOR SPEED™ PAYBACK

3 сезон

9 сезон

Бесстыжие 9 сезон

Все сериалы

все сериалы на PB.wtf

RePack

FAR CRY 5
Ребята, катастрофически не хватает 1900р. для оплаты серверов за Октябрь (всвязи с блокировками трафик упал в 3 раза), 1-2р., выручайте.
  

История игрушек 4 / Toy Story 4 (Джош Кули) [2019, мультфильм, фэнтези, комедия, UHD BDRip 2160p] DUB [iTunes] + MVO [HDRezka Studio] pb.wtf

История игрушек 4 через торрент pb.wtf

Размер: 15.89 GB | Добавлен: 1 мес. 3 д. назад | Торрент скачан:17 раз
Скачать  

11-10-2019 04:06 История игрушек 4 Скачать торрент  

История игрушек 4 / Toy Story 4««Собирайтесь в дорогу»»

Год выпуска: 2019
Страна: США
Жанр: мультфильм, фэнтези, комедия, приключения, семейный
Продолжительность: 01:40:03
Перевод: Дублированный, профессиональный многоголосый
Субтитры: Русские, английские, французские
Режиссер: Джош Кули
В ролях:

Том Хэнкс (Woody, озвучка), Тим Аллен (Buzz Lightyear, озвучка), Энни Поттс (Bo Peep, озвучка), Тони Хейл (Forky, озвучка), Кигэн-Майкл Ки (Ducky, озвучка), Мадлен Макгроу (Bonnie, озвучка), Кристина Хендрикс (Gabby Gabby, озвучка), Джордан Пил (Bunny, озвучка), Киану Ривз (Duke Caboom, озвучка), Элли Маки (Giggle McDimples, озвучка), Джей Эрнандес (Bonnie's Dad, озвучка), Лори Алан (Bonnie's Mom, озвучка)
Описание:
Космический рейнджер Баз Лайтер, ковбой Вуди, собака Спиралька, тиранозавр Рекс и вся команда игрушек снова вместе, и они как никогда готовы к приключениям. С тех пор как Энди поступил в колледж, игрушки поселились в доме своей новой хозяйки Бонни. В свой первый день в школе Бонни смастерила себе из отходов новую игрушку Вилкинса, что положит начало череде событий, в которой найдется место и путешествиям с погонями, и знакомству с новыми игрушками, и встречам с некоторыми из старых друзей, и даже романтической истории.
Рейтинг:

MPAA: G - Нет возрастных ограничений
Качество: UHD BDRip 2160p
Формат: MKV
Видео: HEVC HDR, 15200 Кбит/с, 3840x1608, 23.976 кадр/с, 10 бит
Аудио 1: AC3, 6 ch, 384 Kbps - Русский_лицензия iTunes
Аудио 2: AC3, 2 ch, 192 Kbps - Русский (MVO, HDRezka Studio)
Аудио 3: TrueHD, 8 ch, 6192 Kbps - Английский
Аудио 4: AC3, 6 ch, 640 Kbps - Английский
Навигация по главам: есть

Общее
Уникальный идентификатор : 238760996469018177267361441097962533163 (0xB39FB1FCE575BBCFB99AEE2D5734B12B)
Полное имя : F:\Toy.Story.4.2019.2160p.UHD.BDRip.X265.10bit.HDR.Master5.mkv
Формат : Matroska
Версия формата : Version 4
Размер файла : 15,9 Гбайт
Продолжительность : 1 ч. 40 м.
Режим общего битрейта : Переменный
Общий поток : 22,7 Мбит/сек
Название фильма : Toy.Story.4.2019.2160p.UHD.BDRip.X265.10bit.HDR.Master5
Дата кодирования : UTC 2019-10-10 22:25:54
Программа кодирования : mkvmerge v7.9.0 ('Birds') 64bit
Библиотека кодирования : libebml v1.3.1 + libmatroska v1.4.2

Видео
Идентификатор : 1
Формат : HEVC
Формат/Информация : High Efficiency Video Coding
Коммерческое название : HDR10
Профиль формата : Main 10@L5.1@High
Идентификатор кодека : V_MPEGH/ISO/HEVC
Продолжительность : 1 ч. 40 м.
Битрейт : 15,2 Мбит/сек
Ширина : 3840 пикселей
Высота : 1608 пикселей
Соотношение сторон : 2,40:1
Режим частоты кадров : Постоянный
Частота кадров : 23,976 (24000/1001) кадра/сек
Цветовое пространство : YUV
Субдискретизация насыщенности : 4:2:0 (Type 2)
Битовая глубина : 10 бит
Бит/(Пиксели*Кадры) : 0.103
Размер потока : 10,6 Гбайт (67%)
Заголовок : Toy.Story.4.2019.2160p.UHD.BDRip.X265.10bit.HDR.Master5
Библиотека кодирования : x265 3.1+20-913823aa15cd:[Windows][GCC 6.3.0][64 bit] 10bit
Настройки программы : cpuid=1111039 / frame-threads=4 / numa-pools=20 / wpp / no-pmode / no-pme / no-psnr / no-ssim / log-level=2 / input-csp=1 / input-res=3840x1608 / interlace=0 / total-frames=143939 / level-idc=51 / high-tier=1 / uhd-bd=0 / ref=4 / no-allow-non-conformance / repeat-headers / annexb / aud / hrd / info / hash=0 / no-temporal-layers / no-open-gop / min-keyint=1 / keyint=24 / gop-lookahead=0 / bframes=4 / b-adapt=2 / b-pyramid / bframe-bias=0 / rc-lookahead=25 / lookahead-slices=4 / scenecut=40 / radl=0 / no-splice / no-intra-refresh / ctu=64 / min-cu-size=8 / rect / no-amp / max-tu-size=32 / tu-inter-depth=1 / tu-intra-depth=1 / limit-tu=0 / rdoq-level=2 / dynamic-rd=0.00 / no-ssim-rd / signhide / no-tskip / nr-intra=0 / nr-inter=0 / no-constrained-intra / no-strong-intra-smoothing / max-merge=3 / limit-refs=3 / limit-modes / me=3 / subme=3 / merange=57 / temporal-mvp / no-hme / weightp / no-weightb / no-analyze-src-pics / deblock=-3:-3 / no-sao / no-sao-non-deblock / rd=4 / selective-sao=0 / no-early-skip / rskip / no-fast-intra / no-tskip-fast / no-cu-lossless / no-b-intra / no-splitrd-skip / rdpenalty=0 / psy-rd=2.00 / psy-rdoq=1.00 / no-rd-refine / no-lossless / cbqpoffs=0 / crqpoffs=0 / rc=crf / crf=17.0 / qcomp=0.60 / qpstep=4 / stats-write=0 / stats-read=0 / vbv-maxrate=160000 / vbv-bufsize=160000 / vbv-init=0.9 / crf-max=0.0 / crf-min=0.0 / ipratio=1.40 / pbratio=1.30 / aq-mode=1 / aq-strength=1.00 / cutree / zone-count=0 / no-strict-cbr / qg-size=32 / no-rc-grain / qpmax=69 / qpmin=0 / no-const-vbv / sar=1 / overscan=0 / videoformat=5 / range=0 / colorprim=9 / transfer=16 / colormatrix=9 / chromaloc=1 / chromaloc-top=2 / chromaloc-bottom=2 / display-window=0 / master-display=G(13250,34500)B(7500,3000)R(34000,16000)WP(15635,16450)L(10000000,0) / cll=0,0 / min-luma=0 / max-luma=1023 / log2-max-poc-lsb=8 / vui-timing-info / vui-hrd-info / slices=1 / no-opt-qp-pps / no-opt-ref-list-length-pps / no-multi-pass-opt-rps / scenecut-bias=0.05 / no-opt-cu-delta-qp / no-aq-motion / hdr / hdr-opt / no-dhdr10-opt / no-idr-recovery-sei / analysis-reuse-level=5 / scale-factor=0 / refine-intra=0 / refine-inter=0 / refine-mv=1 / refine-ctu-distortion=0 / no-limit-sao / ctu-info=0 / no-lowpass-dct / refine-analysis-type=0 / copy-pic=1 / max-ausize-factor=1.0 / no-dynamic-refine / no-single-sei / no-hevc-aq / no-svt / no-field / qp-adaptation-range=1.00
Default : Да
Forced : Нет
Цветовой диапазон : Limited
Основные цвета : BT.2020
Характеристики трансфера : PQ
Коэффициенты матрицы : BT.2020 non-constant
MasteringDisplay_ColorPrimaries : Display P3
MasteringDisplay_Luminance : min: 0.0000 cd/m2, max: 1000 cd/m2

Аудио #1
Идентификатор : 2
Формат : AC-3
Формат/Информация : Audio Coding 3
Коммерческое название : Dolby Digital
Идентификатор кодека : A_AC3
Продолжительность : 1 ч. 40 м.
Вид битрейта : Постоянный
Битрейт : 384 Кбит/сек
Каналы : 6 каналов
Channel layout : L R C LFE Ls Rs
Частота : 48,0 КГц
Частота кадров : 31,250 кадров/сек (1536 SPF)
Битовая глубина : 16 бит
Метод сжатия : С потерями
Размер потока : 275 Мбайт (2%)
Заголовок : iTunes
Язык : Russian
ServiceKind/String : Complete Main
Default : Да
Forced : Нет

Аудио #2
Идентификатор : 3
Формат : AC-3
Формат/Информация : Audio Coding 3
Коммерческое название : Dolby Digital
Идентификатор кодека : A_AC3
Продолжительность : 1 ч. 40 м.
Вид битрейта : Постоянный
Битрейт : 192 Кбит/сек
Каналы : 2 канала
Channel layout : L R
Частота : 48,0 КГц
Частота кадров : 31,250 кадров/сек (1536 SPF)
Битовая глубина : 16 бит
Метод сжатия : С потерями
Размер потока : 137 Мбайт (1%)
Заголовок : HDRezka Studio
Язык : Russian
ServiceKind/String : Complete Main
Default : Нет
Forced : Нет

Аудио #3
Идентификатор : 4
Формат : MLP FBA 16-ch
Формат/Информация : Meridian Lossless Packing FBA with 16-channel presentation
Коммерческое название : Dolby TrueHD with Dolby Atmos
Идентификатор кодека : A_TRUEHD
Продолжительность : 1 ч. 40 м.
Вид битрейта : Переменный
Битрейт : 6192 Кбит/сек
Максимальный битрейт : 8532 Кбит/сек
Каналы : 8 каналов
Channel layout : L R C LFE Ls Rs Lb Rb
Частота : 48,0 КГц
Частота кадров : 1200,000 кадров/сек (40 SPF)
Метод сжатия : Без потерь
Размер потока : 4,33 Гбайт (27%)
Язык : English
Default : Нет
Forced : Нет
Number of dynamic objects : 13
Bed channel count : 1 канал
Bed channel configuration : LFE

Аудио #4
Идентификатор : 5
Формат : AC-3
Формат/Информация : Audio Coding 3
Коммерческое название : Dolby Digital
Идентификатор кодека : A_AC3
Продолжительность : 1 ч. 40 м.
Вид битрейта : Постоянный
Битрейт : 640 Кбит/сек
Каналы : 6 каналов
Channel layout : L R C LFE Ls Rs
Частота : 48,0 КГц
Частота кадров : 31,250 кадров/сек (1536 SPF)
Битовая глубина : 16 бит
Метод сжатия : С потерями
Размер потока : 458 Мбайт (3%)
Язык : English
ServiceKind/String : Complete Main
Default : Нет
Forced : Нет

Текст #1
Идентификатор : 6
Формат : UTF-8
Идентификатор кодека : S_TEXT/UTF8
Идентификатор кодека/Информация : UTF-8 Plain Text
Продолжительность : 1 ч. 39 м.
Битрейт : 121 бит/сек
ElementCount : 2039
Размер потока : 88,7 Кбайт (0%)
Язык : Russian
Default : Нет
Forced : Нет

Текст #2
Идентификатор : 7
Формат : UTF-8
Идентификатор кодека : S_TEXT/UTF8
Идентификатор кодека/Информация : UTF-8 Plain Text
Продолжительность : 1 ч. 39 м.
Битрейт : 106 бит/сек
ElementCount : 1656
Размер потока : 77,2 Кбайт (0%)
Язык : Russian
Default : Нет
Forced : Нет

Текст #3
Идентификатор : 8
Формат : PGS
Режим смешивания : zlib
Идентификатор кодека : S_HDMV/PGS
Идентификатор кодека/Информация : Picture based subtitle format used on BDs/HD-DVDs
Продолжительность : 1 ч. 39 м.
Битрейт : 17,6 Кбит/сек
ElementCount : 4136
Размер потока : 12,5 Мбайт (0%)
Заголовок : SDH
Язык : English
Default : Нет
Forced : Нет

Текст #4
Идентификатор : 9
Формат : PGS
Режим смешивания : zlib
Идентификатор кодека : S_HDMV/PGS
Идентификатор кодека/Информация : Picture based subtitle format used on BDs/HD-DVDs
Продолжительность : 1 ч. 39 м.
Битрейт : 14,1 Кбит/сек
ElementCount : 3352
Размер потока : 9,97 Мбайт (0%)
Язык : French
Default : Нет
Forced : Нет

Меню
00:00:00.000 : en:Chapter 01
00:05:39.672 : en:Chapter 02
00:11:21.097 : en:Chapter 03
00:15:06.238 : en:Chapter 04
00:19:01.098 : en:Chapter 05
00:20:52.042 : en:Chapter 06
00:22:43.820 : en:Chapter 07
00:26:11.111 : en:Chapter 08
00:27:47.082 : en:Chapter 09
00:32:11.846 : en:Chapter 10
00:36:17.425 : en:Chapter 11
00:40:34.640 : en:Chapter 12
00:42:56.699 : en:Chapter 13
00:44:26.872 : en:Chapter 14
00:46:39.379 : en:Chapter 15
00:48:05.966 : en:Chapter 16
00:49:18.664 : en:Chapter 17
00:52:25.809 : en:Chapter 18
00:53:58.568 : en:Chapter 19
00:54:34.479 : en:Chapter 20
00:59:06.960 : en:Chapter 21
01:01:30.645 : en:Chapter 22
01:04:40.751 : en:Chapter 23
01:07:25.249 : en:Chapter 24
01:09:31.000 : en:Chapter 25
01:10:54.750 : en:Chapter 26
01:12:05.154 : en:Chapter 27
01:15:02.706 : en:Chapter 28
01:17:29.770 : en:Chapter 29
01:18:04.846 : en:Chapter 30
01:19:21.548 : en:Chapter 31
01:19:48.116 : en:Chapter 32
01:22:24.940 : en:Chapter 33
01:28:59.959 : en:Chapter 34
pb.wtf



Скачать История игрушек 4 через торрент https://a.radikal.ru/a41/1910/2c/7c7ec42fb6f8.png Скачать фильм История игрушек 4 через торрент бесплантно в хорошем качестве Описание: Космический рейнджер Баз Лайтер, ковбой Вуди, собака Спиралька, тиранозавр Рекс и вся команда игрушек снова вместе, и они как ... 10 10 3
Торрент: Зарегистрирован [2019-10-11 04:06] · скачан: 17 раз
Статус: √ проверено
Размер: 15.89 GB
Как cкачать? Как скачать История игрушек 4 через торрент | qTorrent

% Раздел Тема Автор DL S | L
Иностранные мультфильмы [ 1.46 GB ] История игрушек 4 / Toy Story 4 [2019 мультфильм BDRip] - [] Twi7ter Скачать
71 | 4
Зарубежные Мультфильмы (BDRip 1080p, 720p, Blu-ray, BD-Remux) [ 37.26 GB ] История игрушек 4 / Toy Story 4 [2019 мультфильм Blu-ray EUR 1080p] DUB [] bober100 Скачать
1 | 0
3D Мультфильмы [ 13.42 GB ] История игрушек 4 в 3Д / Toy Story 4 3D [2019 мультфильм BDRip 1080p] OverUnder / Вертикальная стереопара serega768 Скачать
1 | 0
Ultra HD (UHD: 2K, 4K, 8K) [ 17.9 GB ] История игрушек 4 / Toy Story 4 [2019 мультфильм UHD BDRip 2160p] [SDR] DUB [] +MVO [HDRezka Studio] bober100 Скачать
2 | 0
3D Мультфильмы [ 9.38 GB ] История игрушек 4 3Д / Toy Story 4 3D [2019 мультфильм BDRip 1080p] [Half OverUnder] DUB [] bober100 Скачать
3 | 0
Иностранные мультфильмы [ 749 MB ] История игрушек 4 / Toy Story 4 [2019 мультфильм HDRip] DUB [] bober100 Скачать
4 | 1
Ultra HD (UHD: 2K, 4K, 8K) [ 16.05 GB ] История игрушек 4 / Toy Story 4 [2019 мультфильм UHD BDRip 2160p] DUB [] +MVO [HDRezka Studio] bober100 Скачать
1 | 0


>> Регистрируемся здесь <<






Отзывы и комментарии о схеме читаем и пишем здесь: ---> Отзывы и комментарии о схеме

Новые благодарочки в телеграм довольных пользователей:
скриншот   скриншот   скриншот   скриншот   скриншот

18-10-2019 13:16 История игрушек 4 Скачать торрент  

Топик был перенесен из форума Ultra HD (UHD: 2K, 4K, 8K) в форум Для поглощённых раздач

Причина переноса: История игрушек 4 / Toy Story 4
bober100pb.wtf



    Дорогой пользователь! Огромная просьба, поблагодарите релизера, оцените раздачу и оставьте свои комментарий, если Вы скачали История игрушек 4 через торрент бесплатно! Внесите свою лепту в развитие PiratBit!
    Комментировать посты могут только пользователи прошедшие не сложную регистрацию
    Показать сообщения:    

    История игрушек 4 через торрент
    Скачать бесплатно История игрушек 4
    История игрушек 4 скачать торрент
    История игрушек 4 смотреть онлайн
    Cкачать фильм История игрушек 4 бесплатно
    История игрушек 4 скачать торрент в хорошем качестве
    История игрушек 4 смотреть онлайн бесплатно в хорошем качестве


    Вы не можете начинать темы
    Вы не можете отвечать на сообщения
    Вы не можете редактировать свои сообщения
    Вы не можете удалять свои сообщения
    Вы не можете голосовать в опросах
    Вы не можете прикреплять файлы к сообщениям
    Вы можете скачивать файлы