2 сезон

iTunes

MVO

1

2 сезон

iTunes

iTunes

1 сезон

RePack

30

Новинка

ВАЖНО

ИГРА 18+

pack

RePack

MK11
pack

Легкие деньги

RePack

jed

RePack

fifa19

RePack

RDR2

RePack

NEED FOR SPEED™ PAYBACK

4 сезон

9 сезон

Бесстыжие 9 сезон

Все сериалы

все сериалы на PB.wtf

RePack

FAR CRY 5

Anonymous, добрый день, мы не успеваем собрать деньги на оплату серверов за декабрь и январь, помогите нам пожалуйста в это трудное время. В качестве благодарности мы отключим Вам всю рекламу на сайте (укажите свой ник в строку Ваше имя)!

×
  
Magnet ссылка

Вышибала / Bruiser (Джордж А. Ромеро) [2000, ужасы, детектив, BDRip 1080p by msltel] MVO pb.wtf

Вышибала через торрент pb.wtf

Размер: 8.18 GB | Добавлен: 1 год 3 мес. назад | Торрент скачан:14 раз
Скачать  

11-10-2019 06:00 Вышибала Скачать торрент  

Название: Вышибала
Оригинальное название: Bruiser
Год выпуска: 2000
Страна: Франция, Канада, США
Жанр: ужасы, детектив
Продолжительность: 01:35:35
Перевод: профессиональный многоголосый

Режиссер: Джордж А. Ромеро
В ролях: Джейсон Флеминг, Петер Стормаре, Лесли Хоуп, Нина Гарбирас, Эндрю Тарбет, Том Эткинс

О фильме: Генри Кридлоу всегда пытался соответствовать… Он старался быть сдержанным, следовать писаным и неписаным правилам. Но однажды утром он обнаружил…, что у него нет лица. Долгие годы смирения и покорности лишили его самой важной вещи — индивидуальности. Он превратился в безликий призрак. С него хватит! Он отомстит всем, кто в этом виноват: жене, изменяющей ему направо и налево, другу и партнёру, обманывающему его, боссу, который смешивает его с грязью. Ведь только кровавая месть поможет ему вернуть потерянную личность...



Качество: BDRip 1080p
Формат: MKV
Видео: MPEG-4 AVC, 11 Mбит/с, 1920x1080
Аудио 1: русский, AC3, 448 kbps, 6 ch, 48 kHz [закадровый многоголосый, R5]
Аудио 2: английский, DTS, 768 kbps, 6 ch, 48 kHz [оригинал]
Главы/чаптеры
Общее
Уникальный идентификатор : 192534592816226757144208776793975085978 (0x90D8D052CE4E35F09E4665086B9ADB9A)
Полное имя : D:\Video\Вышибала.2000.BDRip 1080p by msltel.mkv
Формат : Matroska
Версия формата : Version 4
Размер файла : 8,18 Гбайт
Продолжительность : 1 ч. 35 м.
Общий поток : 12,3 Мбит/сек
Название фильма : Rip by msltel
Дата кодирования : UTC 2019-10-11 01:01:16
Программа кодирования : mkvmerge v8.2.0 ('World of Adventure') 64bit
Библиотека кодирования : libebml v1.3.1 + libmatroska v1.4.2

Видео
Идентификатор : 1
Формат : AVC
Формат/Информация : Advanced Video Codec
Профиль формата : High@L4.1
Настройки формата : CABAC / 4 Ref Frames
Параметр CABAC формата : Да
Параметр RefFrames формата : 4 кадра
Идентификатор кодека : V_MPEG4/ISO/AVC
Продолжительность : 1 ч. 35 м.
Битрейт : 11,0 Мбит/сек
Ширина : 1920 пикселей
Высота : 1080 пикселей
Соотношение сторон : 16:9
Режим частоты кадров : Постоянный
Частота кадров : 25,000 кадров/сек
Цветовое пространство : YUV
Субдискретизация насыщенности : 4:2:0
Битовая глубина : 8 бит
Тип развёртки : Прогрессивная
Бит/(Пиксели*Кадры) : 0.213
Размер потока : 7,37 Гбайт (90%)
Библиотека кодирования : x264 core 157 r2935 545de2f
Настройки программы : cabac=1 / ref=4 / deblock=1:-2:-2 / analyse=0x3:0x113 / me=umh / subme=11 / psy=1 / psy_rd=1.00:0.15 / mixed_ref=1 / me_range=32 / chroma_me=1 / trellis=2 / 8x8dct=1 / cqm=0 / deadzone=21,11 / fast_pskip=0 / chroma_qp_offset=-3 / threads=6 / lookahead_threads=1 / sliced_threads=0 / nr=0 / decimate=1 / interlaced=0 / bluray_compat=0 / constrained_intra=0 / bframes=7 / b_pyramid=2 / b_adapt=2 / b_bias=0 / direct=1 / weightb=1 / open_gop=0 / weightp=2 / keyint=240 / keyint_min=24 / scenecut=40 / intra_refresh=0 / rc_lookahead=40 / rc=crf / mbtree=1 / crf=13.0 / qcomp=0.60 / qpmin=0 / qpmax=69 / qpstep=4 / vbv_maxrate=50000 / vbv_bufsize=62500 / crf_max=0.0 / nal_hrd=none / filler=0 / ip_ratio=1.40 / aq=1:1.00
Язык : English
Default : Да
Forced : Нет

Аудио #1
Идентификатор : 2
Формат : AC-3
Формат/Информация : Audio Coding 3
Коммерческое название : Dolby Digital
Идентификатор кодека : A_AC3
Продолжительность : 1 ч. 35 м.
Вид битрейта : Постоянный
Битрейт : 448 Кбит/сек
Каналы : 6 каналов
ChannelLayout : L R C LFE Ls Rs
Частота : 48,0 КГц
Частота кадров : 31,250 кадров/сек (1536 SPF)
Метод сжатия : С потерями
Размер потока : 306 Мбайт (4%)
Заголовок : MVO R5
Язык : Russian
ServiceKind/String : Complete Main
Default : Да
Forced : Нет

Аудио #2
Идентификатор : 3
Формат : DTS
Формат/Информация : Digital Theater Systems
Идентификатор кодека : A_DTS
Продолжительность : 1 ч. 35 м.
Вид битрейта : Постоянный
Битрейт : 768 Кбит/сек
Каналы : 6 каналов
ChannelLayout : C L R Ls Rs LFE
Частота : 48,0 КГц
Частота кадров : 93,750 кадра/сек (512 SPF)
Битовая глубина : 16 бит
Метод сжатия : С потерями
Размер потока : 525 Мбайт (6%)
Заголовок : original
Язык : English
Default : Нет
Forced : Нет

Меню
00:00:00.000 : en:Chapter 1
00:06:36.000 : en:Chapter 2
00:15:20.000 : en:Chapter 3
00:26:16.400 : en:Chapter 4
00:34:46.400 : en:Chapter 5
00:45:38.640 : en:Chapter 6
00:52:25.920 : en:Chapter 7
00:58:19.480 : en:Chapter 8
01:07:39.400 : en:Chapter 9
01:13:10.400 : en:Chapter 10
01:23:06.480 : en:Chapter 11
01:31:34.480 : en:Chapter 12
01:35:35.440 : en:Chapter 13
pb.wtf



Скачать Вышибала через торрент https://b.radikal.ru/b31/1910/8e/81e57d54457b.jpg Скачать фильм Вышибала через торрент бесплантно в хорошем качестве О фильме: Генри Кридлоу всегда пытался соответствовать… Он старался быть сдержанным, следовать писаным и неписаным правилам. Но однажды ... 5 10 1
Торрент: Зарегистрирован [2019-10-11 06:00] · скачан: 14 раз
Статус: √ проверено
Размер: 8.18 GB
Как cкачать? Как скачать Вышибала через торрент | UTorrent

% Раздел Тема Автор DL S | L
Фильмы до 2000 г. [ 2.81 GB ] Вышибала / Bruiser [2000 BDRip by msltel] MVO msltel Скачать
1 | 0
Фильмы [HD 720p, 1080p] (Хороший звук DUB, MVO) [ 4.07 GB ] Вышибала / Bruiser [2000 BDRip 720p by msltel] MVO msltel Скачать
1 | 0

28-11-2019 20:33  

Отключить всю рекламу на сайте

    Дорогой пользователь! Огромная просьба, поблагодарите релизера, оцените раздачу и оставьте свои комментарий, если Вы скачали Вышибала через торрент бесплатно! Внесите свою лепту в развитие PiratBit!
    Комментировать посты могут только пользователи прошедшие не сложную регистрацию
    Показать сообщения:    

    Вышибала через торрент
    Скачать бесплатно Вышибала
    Вышибала скачать торрент
    Вышибала смотреть онлайн
    Cкачать фильм Вышибала бесплатно
    Вышибала скачать торрент в хорошем качестве
    Вышибала смотреть онлайн бесплатно в хорошем качестве


    Вы не можете начинать темы
    Вы не можете отвечать на сообщения
    Вы не можете редактировать свои сообщения
    Вы не можете удалять свои сообщения
    Вы не можете голосовать в опросах
    Вы не можете прикреплять файлы к сообщениям
    Вы можете скачивать файлы