новый адрес пиратбит piratbit
Мега распродажа FORZA HORIZON 4 ULTIMATE+ВСЕ DLC+ОНЛАЙН всего за 499р. 349 руб. (супер цена). Внимание количество ограничено!!!

iTunes

1+1

iTunes

мы

iTunes

1

iTunes

Чернобыль

iTunes

Ральф против интернета

Лицензия

ПШазам

Лицензия

Игра престолов

Лицензия

30
pack

ВАЖНО

!!Акция!!

Alien_RageХит недели

RePack

Resident Evil 21

ИГРА 18+

pack

RePack

Metro:Exodus

!!Акция!!

Alien_Rage

RePack

fifa19

RePack

Assassins Creed: Odyssey

RePack

NEED FOR SPEED™ PAYBACK

3 сезон

9 сезон

Бесстыжие 9 сезон

Все сериалы

все сериалы на PB.wtf

RePack

FAR CRY 5
Ребята, катастрофически не хватает 1900р. для оплаты серверов за Октябрь (всвязи с блокировками трафик упал в 3 раза), 1-2р., выручайте.
  

Путь: Во все тяжкие / El Camino: A Breaking Bad Movie (Винс Гиллиган) [2019, драма, криминал, WEB-DL 1080p] Sub [RUS] pb.wtf

Путь: Во все тяжкие через торрент pb.wtf

Раздают: 4 [ 158 KB/s ]
Размер: 3.77 GB | Добавлен: 1 мес. 1 д. назад | Торрент скачан:98 раз
Скачать  

11-10-2019 12:32 Путь: Во все тяжкие Скачать торрент  

Путь: Во все тяжкие / El Camino: A Breaking Bad Movie
Год выпуска: 2019
Страна: США
Жанр: драма, криминал
Продолжительность: 02:02:42
Перевод: СУБТИТРЫ
Субтитры: Russian (Full), English (SDH)

Режиссер: Винс Гиллиган

rating


В ролях: Аарон Пол, Мэтт Джонс, Джонатан Бэнкс, Чарльз Бэйкер, Ларри Хэнкин и др.

Описание: Джесси Пинкман сбежал от неонацистов. Не зная, куда ему податься, он скрывается от полиции, похитителей и прошлого. Теперь он должен понять, как ему жить дальше.

Качество: WEB-DL 1080p
Формат: MKV

Видео: 1920x1080 at 24.000 fps, MPEG-4 AVC, ~3650 kbps avg
Аудио: English: 48 kHz, EAC3 Atmos, 3/2 (L,C,R,l,r) + LFE ch, ~768 kbps avg
скриншот  скриншот  скриншот  

Общее
Уникальный идентификатор : 164930405420499284730150538758666849716 (0x7C1470CEB21BCB5828A3714B12EC0DB4)
Полное имя : C:\El.Camino.A.Breaking.Bad.Movie.2019.1080p.NF.WEB-DL.DDP5.1.H264-Netflix.mkv
Формат : Matroska
Версия формата : Version 4
Размер файла : 3,77 Гбайт
Продолжительность : 2 ч. 2 м.
Режим общего битрейта : Переменный
Общий поток : 4401 Кбит/сек
Название фильма : CMRG
Дата кодирования : UTC 2019-10-11 08:04:32
Программа кодирования : mkvmerge v33.0.0 ('A Little Bit of Madness') 64-bit
Библиотека кодирования : libebml v1.3.7 + libmatroska v1.5.0

Видео
Идентификатор : 1
Формат : AVC
Формат/Информация : Advanced Video Codec
Профиль формата : Main@L4
Настройки формата : CABAC / 3 Ref Frames
Параметр CABAC формата : Да
Параметр RefFrames формата : 3 кадра
Идентификатор кодека : V_MPEG4/ISO/AVC
Продолжительность : 2 ч. 2 м.
Вид битрейта : Переменный
Битрейт : 3650 Кбит/сек
Максимальный битрейт : 5475 Кбит/сек
Ширина : 1920 пикселей
Высота : 1080 пикселей
Соотношение сторон : 16:9
Режим частоты кадров : Постоянный
Частота кадров : 24,000 кадра/сек
Цветовое пространство : YUV
Субдискретизация насыщенности : 4:2:0
Битовая глубина : 8 бит
Тип развёртки : Прогрессивная
Бит/(Пиксели*Кадры) : 0.073
Размер потока : 3,04 Гбайт (81%)
Библиотека кодирования : x264 core 148 r2715 7e75228
Настройки программы : cabac=1 / ref=3 / deblock=1:0:0 / analyse=0x1:0x111 / me=umh / subme=10 / psy=1 / psy_rd=1.00:0.00 / mixed_ref=1 / me_range=24 / chroma_me=1 / trellis=2 / 8x8dct=0 / cqm=0 / deadzone=21,11 / fast_pskip=1 / chroma_qp_offset=-2 / threads=8 / lookahead_threads=1 / sliced_threads=0 / nr=0 / decimate=1 / interlaced=0 / bluray_compat=0 / stitchable=1 / constrained_intra=0 / bframes=2 / b_pyramid=0 / b_adapt=2 / b_bias=0 / direct=3 / weightb=1 / open_gop=0 / weightp=2 / keyint=250 / keyint_min=24 / scenecut=0 / intra_refresh=0 / rc_lookahead=48 / rc=2pass / mbtree=1 / bitrate=3650 / ratetol=1.0 / qcomp=0.50 / qpmin=6 / qpmax=51 / qpstep=4 / cplxblur=20.0 / qblur=0.5 / vbv_maxrate=5475 / vbv_bufsize=7300 / nal_hrd=vbr / filler=0 / ip_ratio=1.40 / aq=1:1.00
Default : Да
Forced : Нет

Аудио
Идентификатор : 2
Формат : E-AC-3 JOC
Формат/Информация : Enhanced AC-3 with Joint Object Coding
Коммерческое название : Dolby Digital Plus with Dolby Atmos
Идентификатор кодека : A_EAC3
Продолжительность : 2 ч. 2 м.
Вид битрейта : Постоянный
Битрейт : 768 Кбит/сек
Каналы : 6 каналов
ChannelLayout : L R C LFE Ls Rs
Частота : 48,0 КГц
Частота кадров : 31,250 кадров/сек (1536 SPF)
Метод сжатия : С потерями
Размер потока : 674 Мбайт (17%)
Заголовок : English
Язык : English
ServiceKind/String : Complete Main
Default : Да
Forced : Нет
ComplexityIndex : 16
NumberOfDynamicObjects : 15
BedChannelCount/String : 1 канал
BedChannelConfiguration : LFE

Текст #1
Идентификатор : 3
Формат : UTF-8
Идентификатор кодека : S_TEXT/UTF8
Идентификатор кодека/Информация : UTF-8 Plain Text
Заголовок : English
Язык : English
Default : Нет
Forced : Нет

Текст #2
Идентификатор : 4
Формат : UTF-8
Идентификатор кодека : S_TEXT/UTF8
Идентификатор кодека/Информация : UTF-8 Plain Text
Заголовок : Russian
Язык : Russian
Default : Да
Forced : Нет

pb.wtf



Скачать Путь: Во все тяжкие через торрент https://a.radikal.ru/a34/1910/66/9dffb5ecd878.jpg Скачать фильм Путь: Во все тяжкие через торрент бесплантно в хорошем качестве Описание: Джесси Пинкман сбежал от неонацистов. Не зная, куда ему податься, он скрывается от полиции, похитителей и прошлого. Теперь он ... 10 10 4
Info! Золотая раздача, скачанное не засчитывается.
Торрент: Зарегистрирован [2019-10-11 12:32] · скачан: 98 раз
Статус: √ проверено
Размер: 3.77 GB
Как cкачать? Как скачать Путь: Во все тяжкие через торрент | qTorrent

% Раздел Тема Автор DL S | L
Фильмы 2019 [DVDrip, WEB-DLRip, HDrip] (DUB, MVO) [ 1.46 GB ] Путь: Во все тяжкие / El Camino: A Breaking Bad Movie [2019 WEB-DLRip] DVO [Кубик в Кубе] bober100 Скачать
25 | 0
Фильмы 2019 [DVDrip, WEB-DLRip, HDrip] (DUB, MVO) [ 3.31 GB ] Путь: Во все тяжкие / El Camino: A Breaking Bad Movie [2019 WEB-DLRip-AVC] MVO [Jaskier LostFilm IdeaFilm HamsterStudio] DVO [Кубик в Кубе] - ExKinoRay Enigma2010 Скачать
49 | 0
Фильмы (WEB-DL 720p, 1080p) [ 11.89 GB ] Путь: Во все тяжкие / El Camino: A Breaking Bad Movie [2019 WEB-DL 1080p] MVO [Jaskier LostFilm] DVO [Кубик в Кубе] - ExKinoRay Enigma2010 Скачать
303 | 19
T Фильмы (мультфильмы) cо спонсором показа (Новинки AVI/MKV) [ 5.7 GB ] Путь: Во все тяжкие / El Camino: A Breaking Bad Movie [2019 WEBRip 720p] DVO [Кубик в Кубе] bober100 Скачать
5 | 0
Фильмы (WEB-DL 720p, 1080p) [ 3.44 GB ] Путь: Во все тяжкие / El Camino: A Breaking Bad Movie [2019 WEB-DL 1080p] MVO [LostFilm] bober100 Скачать
5 | 0
Фильмы 2019 [DVDrip, WEB-DLRip, HDrip] (DUB, MVO) [ 1.45 GB ] Путь: Во все тяжкие / El Camino: A Breaking Bad Movie [2019 WEB-DLRip] MVO [Jaskier] bober100 Скачать
3 | 0
Фильмы (WEB-DL 720p, 1080p) [ 5.7 GB ] Путь: Во все тяжкие / El Camino: A Breaking Bad Movie [2019 WEB-DL 720p] MVO [Jaskier] bober100 Скачать
4 | 0


>> Регистрируемся здесь <<






Отзывы и комментарии о схеме читаем и пишем здесь: ---> Отзывы и комментарии о схеме

Новые благодарочки в телеграм довольных пользователей:
скриншот   скриншот   скриншот   скриншот   скриншот
    Дорогой пользователь! Огромная просьба, поблагодарите релизера, оцените раздачу и оставьте свои комментарий, если Вы скачали Путь: Во все тяжкие через торрент бесплатно! Внесите свою лепту в развитие PiratBit!
    Комментировать посты могут только пользователи прошедшие не сложную регистрацию
    Показать сообщения:    

    Путь: Во все тяжкие через торрент
    Скачать бесплатно Путь: Во все тяжкие
    Путь: Во все тяжкие скачать торрент
    Путь: Во все тяжкие смотреть онлайн
    Cкачать фильм Путь: Во все тяжкие бесплатно
    Путь: Во все тяжкие скачать торрент в хорошем качестве
    Путь: Во все тяжкие смотреть онлайн бесплатно в хорошем качестве


    Вы не можете начинать темы
    Вы не можете отвечать на сообщения
    Вы не можете редактировать свои сообщения
    Вы не можете удалять свои сообщения
    Вы не можете голосовать в опросах
    Вы не можете прикреплять файлы к сообщениям
    Вы можете скачивать файлы