Ссылка на приватное зеркало нашего сайта всего за 1$. Внимание количество ограничено!!!

2 сезон

iTunes

1 сезон

1

iTunes

iTunes

iTunes

1 сезон

RePack

30

ИГРА 18+

pack

ВАЖНО

!!Акция!!

Alien_RageХит недели

RePack

MK11
pack

Забери бонус

RePack

jed

!!Акция!!

Alien_Rage

RePack

fifa19

RePack

Assassins Creed: Odyssey

RePack

NEED FOR SPEED™ PAYBACK

4 сезон

9 сезон

Бесстыжие 9 сезон

Все сериалы

все сериалы на PB.wtf

RePack

FAR CRY 5
  

Московские тайны. Проклятие Мастера / Сезон: 5 / Серии: 1-2 из 2 (Артем Насыбулин) [2019, Детектив, криминал, SATRip] pb.wtf

Московские тайны. Проклятие Мастера через торрент pb.wtf

Размер: 1.12 GB | Добавлен: 1 год назад | Торрент скачан:24 раза
Скачать  

11-10-2019 17:46 Московские тайны. Проклятие Мастера Скачать торрент  

Московские тайны. Проклятие Мастера
Год выпуска: 2019
Страна: Россия
Жанр: Детектив, криминал
Продолжительность: ~ 00:44:00
Субтитры: отсутствуют

Режиссер: Артем Насыбулин



В ролях: Александра Богданова, Евгений Пронин, Владислав Ветров, Екатерина Семёнова, Александр Робак, Алексей Лонгин, Андрей Аверьянов, Екатерина Стулова, Владимир Бутенко, Алексей Тахаров

Описание: В Москве, на Патриарших прудах, снимается экранизация романа «Мастер и Маргарита». Прямо во время съемки погибает артист, играющий роль Воланда. Есть подозрение, что некто решил таким чудовищным способом сорвать проект: либо конкуренты продюсера, либо жители Патриарших, чей покой нарушило появление съемочной группы. Впрочем, у покойного актера могли быть и личные враги… Тем временем, бедствия сыплются, как из рога изобилия. Кинематографисты уверены: все дело в давнем проклятии. Любому известно, что роман «Мастер и Маргарита» не предназначен для экрана, и тому, кто все же рискнет его адаптировать, придется худо.

Качество: SATRip
Формат: AVI

Видео: XviD, ~ 1650 Кбит/с, 720x400
Аудио: MP3, 2 ch, 192 Кбит/с
скриншот  скриншот  скриншот  скриншот  

Общее
Полное имя : C:\Moskovskie.tayni.Proklyatie.mastera.2019.XviD.SATRip.25Kuzmich\Moskovskie.tayni.Proklyatie.mastera.(01.seriya.iz.02).XviD.SATRip.25Kuzmich.avi
Формат : AVI
Формат/Информация : Audio Video Interleave
Размер файла : 584 Мбайт
Продолжительность : 44 м. 7 с.
Общий поток : 1852 Кбит/сек
Программа кодирования : VirtualDubMod 1.5.10.3 | www.virtualdub-fr.org || (build 2550/release)
Библиотека кодирования : VirtualDubMod build 2550/release

Видео
Идентификатор : 0
Формат : MPEG-4 Visual
Профиль формата : Advanced Simple@L5
Настройки формата : BVOP1
Параметр BVOP формата : 1
Параметр QPel формата : Нет
Параметр GMC формата : Без точки перехода
Параметр матрицы формата : Default (MPEG)
Идентификатор кодека : XVID
Идентификатор кодека/Подсказка : XviD
Продолжительность : 44 м. 7 с.
Битрейт : 1650 Кбит/сек
Ширина : 720 пикселей
Высота : 400 пикселей
Соотношение сторон : 16:9
Частота кадров : 25,000 кадров/сек
Цветовое пространство : YUV
Субдискретизация насыщенности : 4:2:0
Битовая глубина : 8 бит
Тип развёртки : Прогрессивная
Метод сжатия : С потерями
Бит/(Пиксели*Кадры) : 0.229
Размер потока : 521 Мбайт (89%)
Библиотека кодирования : XviD 73

Аудио
Идентификатор : 1
Формат : MPEG Audio
Версия формата : Version 1
Профиль формата : Layer 3
Настройки формата : Joint stereo / MS Stereo
Идентификатор кодека : 55
Идентификатор кодека/Подсказка : MP3
Продолжительность : 44 м. 7 с.
Вид битрейта : Постоянный
Битрейт : 192 Кбит/сек
Каналы : 2 канала
Частота : 48,0 КГц
Частота кадров : 41,667 кадра/сек (1152 SPF)
Метод сжатия : С потерями
Размер потока : 60,6 Мбайт (10%)
Выравнивание : Соединение по промежуткам
Продолжительность промежутка : 40 мс. (1,00 видеокадр)
Время предзагрузки промежутка : 504 мс.
Библиотека кодирования : LAME3.99r
Настройки программы : -m j -V 4 -q 2 -lowpass 18.6 -b 192

pb.wtf



Скачать Московские тайны. Проклятие Мастера через торрент https://i87.fastpic.ru/big/2019/1011/09/6fbe1a7c18f99e909d510ac8891b8009.jpg Скачать фильм Московские тайны. Проклятие Мастера через торрент бесплантно в хорошем качестве Описание: В Москве, на Патриарших прудах, снимается экранизация романа «Мастер и Маргарита». Прямо во время съемки погибает артист, ... 10 10 3
Торрент: Зарегистрирован [2019-10-11 17:46] · скачан: 24 раз
Статус: √ проверено
Размер: 1.12 GB
Как cкачать? Как скачать Московские тайны. Проклятие Мастера через торрент | qTorrent

% Раздел Тема Автор DL S | L
Наши сериалы [ 1.24 GB ] Московские тайны. Проклятие Мастера / Сезон: 5 / Серии: 1-2 из 2 [2019 WEB-DL 720p] bober100 Скачать
1 | 0
Наши сериалы [ 1.11 GB ] Московские тайны. Проклятие Мастера / Сезон: 5 / Серии: 1-2 из 2 [2019 WEB-DLRip-AVC] bober100 Скачать
1 | 0
Наши сериалы [ 1.03 GB ] Московские тайны. Проклятие мастера / Сезон-5 / Серии: 1-2 из 2 [2019 SATRip-AVC] aleksan55 Скачать
1 | 0

28-11-2019 20:33  

Отключить всю рекламу на сайте

    Дорогой пользователь! Огромная просьба, поблагодарите релизера, оцените раздачу и оставьте свои комментарий, если Вы скачали Московские тайны. Проклятие Мастера через торрент бесплатно! Внесите свою лепту в развитие PiratBit!
    Комментировать посты могут только пользователи прошедшие не сложную регистрацию
    Показать сообщения:    

    Московские тайны. Проклятие Мастера через торрент
    Скачать бесплатно Московские тайны. Проклятие Мастера
    Московские тайны. Проклятие Мастера скачать торрент
    Московские тайны. Проклятие Мастера смотреть онлайн
    Cкачать фильм Московские тайны. Проклятие Мастера бесплатно
    Московские тайны. Проклятие Мастера скачать торрент в хорошем качестве
    Московские тайны. Проклятие Мастера смотреть онлайн бесплатно в хорошем качестве


    Вы не можете начинать темы
    Вы не можете отвечать на сообщения
    Вы не можете редактировать свои сообщения
    Вы не можете удалять свои сообщения
    Вы не можете голосовать в опросах
    Вы не можете прикреплять файлы к сообщениям
    Вы можете скачивать файлы