новый адрес пиратбит piratbit
Мега распродажа FORZA HORIZON 4 ULTIMATE+ВСЕ DLC+ОНЛАЙН всего за 499р. 349 руб. (супер цена). Внимание количество ограничено!!!

iTunes

1+1

iTunes

мы

iTunes

1

iTunes

Чернобыль

iTunes

Ральф против интернета

Лицензия

ПШазам

Лицензия

Игра престолов

Лицензия

30
pack

ВАЖНО

!!Акция!!

Alien_RageХит недели

RePack

Resident Evil 21

ИГРА 18+

pack

RePack

Metro:Exodus

!!Акция!!

Alien_Rage

RePack

fifa19

RePack

Assassins Creed: Odyssey

RePack

NEED FOR SPEED™ PAYBACK

3 сезон

9 сезон

Бесстыжие 9 сезон

Все сериалы

все сериалы на PB.wtf

RePack

FAR CRY 5
Ребята, катастрофически не хватает 1900р. для оплаты серверов за Октябрь (всвязи с блокировками трафик упал в 3 раза), 1-2р., выручайте.
  

В высокой траве / In the Tall Grass (Винченцо Натали) [2019, триллеры, ужасы, драма, WEBRip-AVC] MVO [HDRezka Studio] pb.wtf

В высокой траве через торрент pb.wtf

Раздают: 3 [ 0 KB/s ]
Размер: 2.28 GB | Добавлен: 1 мес. 1 д. назад | Торрент скачан:247 раз
Скачать  

11-10-2019 18:33 В высокой траве Скачать торрент  

В высокой траве / In the Tall Grass
Год выпуска: 2019
Страна: Канада
Жанр: триллеры, ужасы, драма
Продолжительность: 01:42:34
Перевод: Профессиональный (многоголосый) | HDRezka Studio
Субтитры: отсутствуют

Режиссер: Винченцо Натали

rating

В ролях: Лайсла Де Оливейра, Эйвери Уиттед, Патрик Уилсон, Уилл Бьюи мл., Харрисон Гилбертсон, Тиффани Хельм, Рэйчел Уилсон

Описание: Путешествующие по Америке Бекки и Кэл останавливаются возле поля высокой травы, привлеченные криками заблудившегося там ребенка. Поспешив ему на помощь, они очень быстро теряют друг друга из вида и вскоре понимают, что сами заблудились. Тогда дезориентированные и напуганные герои начинают осознавать, что оказались в плену некой зловещей силы, присутствие которой с каждой минутой ощущается всё отчётливее.

Качество: WEBRip-AVC
Формат: MKV

Видео: 854x480, 16:9, 23.976 fps, 2 982 kb/s
Аудио: Russian, AC3, 48 kHz, 2 ch, 192 kbps
скриншот  скриншот  скриншот  скриншот  скриншот  

General

Complete name : In.the.Tall.Grass.2019.480p.rus.HDREZKA.AG.mkv

Format : Matroska

Format version : Version 4

File size : 2.28 GiB

Duration : 1 h 42 min

Overall bit rate : 3 176 kb/s

Encoded date : UTC 2019-10-11 15:58:54

Writing application : mkvmerge v25.0.0 ('Prog Noir') 64-bit

Writing library : libebml v1.3.6 + libmatroska v1.4.9

Video

ID : 1

Format : AVC

Format/Info : Advanced Video Codec

Format profile : High@L3

Format settings : CABAC / 1 Ref Frames

Format settings, CABAC : Yes

Format settings, Reference frames : 1 frame

Format settings, GOP : M=1, N=30

Codec ID : V_MPEG4/ISO/AVC

Duration : 1 h 42 min

Bit rate : 2 982 kb/s

Width : 854 pixels

Height : 480 pixels

Display aspect ratio : 16:9

Frame rate mode : Constant

Frame rate : 23.976 (24000/1001) FPS

Color space : YUV

Chroma subsampling : 4:2:0

Bit depth : 8 bits

Scan type : Progressive

Bits/(Pixel*Frame) : 0.303

Stream size : 2.14 GiB (94%)

Language : English

Default : Yes

Forced : No

Audio

ID : 2

Format : AC-3

Format/Info : Audio Coding 3

Commercial name : Dolby Digital

Codec ID : A_AC3

Duration : 1 h 42 min

Bit rate mode : Constant

Bit rate : 192 kb/s

Channel(s) : 2 channels

Channel layout : L R

Sampling rate : 48.0 kHz

Frame rate : 31.250 FPS (1536 SPF)

Bit depth : 16 bits

Compression mode : Lossy

Stream size : 141 MiB (6%)

Service kind : Complete Main

Default : Yes

Forced : No

pb.wtf



Скачать В высокой траве через торрент https://i106.fastpic.ru/big/2019/1011/ad/2da714442ae8635ef30fc8d7c00b05ad.jpg Скачать фильм В высокой траве через торрент бесплантно в хорошем качестве Описание: Путешествующие по Америке Бекки и Кэл останавливаются возле поля высокой травы, привлеченные криками заблудившегося там ребенка. ... 10 10 16
Торрент: Зарегистрирован [2019-10-11 19:42] · скачан: 247 раз
Статус: T временная
Размер: 2.28 GB
Как cкачать? Как скачать В высокой траве через торрент | qTorrent


>> Регистрируемся здесь <<






Отзывы и комментарии о схеме читаем и пишем здесь: ---> Отзывы и комментарии о схеме

Новые благодарочки в телеграм довольных пользователей:
скриншот   скриншот   скриншот   скриншот   скриншот
    Дорогой пользователь! Огромная просьба, поблагодарите релизера, оцените раздачу и оставьте свои комментарий, если Вы скачали В высокой траве через торрент бесплатно! Внесите свою лепту в развитие PiratBit!
    Комментировать посты могут только пользователи прошедшие не сложную регистрацию
    Показать сообщения:    

    В высокой траве через торрент
    Скачать бесплатно В высокой траве
    В высокой траве скачать торрент
    В высокой траве смотреть онлайн
    Cкачать фильм В высокой траве бесплатно
    В высокой траве скачать торрент в хорошем качестве
    В высокой траве смотреть онлайн бесплатно в хорошем качестве


    Вы не можете начинать темы
    Вы не можете отвечать на сообщения
    Вы не можете редактировать свои сообщения
    Вы не можете удалять свои сообщения
    Вы не можете голосовать в опросах
    Вы не можете прикреплять файлы к сообщениям
    Вы можете скачивать файлы