новый адрес
Мега распродажа FORZA HORIZON 4 ULTIMATE+ВСЕ DLC+ОНЛАЙН всего за 499р. 349 руб. (супер цена). Внимание количество ограничено!!!

iTunes

1+1

iTunes

мы

iTunes

1

iTunes

Чернобыль

iTunes

Ральф против интернета

Лицензия

ПШазам

Лицензия

Игра престолов

Лицензия

30
pack

ВАЖНО

!!Акция!!

Alien_RageХит недели

RePack

Resident Evil 21

ИГРА 18+

pack

RePack

Metro:Exodus

!!Акция!!

Alien_Rage

RePack

fifa19

RePack

Assassins Creed: Odyssey

RePack

NEED FOR SPEED™ PAYBACK

3 сезон

9 сезон

Бесстыжие 9 сезон

Все сериалы

все сериалы на PB.wtf

RePack

FAR CRY 5
Ребята, катастрофически не хватает 1900р. для оплаты серверов за Октябрь (всвязи с блокировками трафик упал в 3 раза), 1-2р., выручайте.
  

Звёздные войны: Сопротивление / Star Wars: Resistance / Сезон: 2 / Серии: 1-5 из 11 (Стюарт Ли) [2019, мультфильм, фантастика, боевик, приключения, WEB-DL 1080p] MVO [LostFilm] pb.wtf

Звёздные войны: Сопротивление через торрент pb.wtf

Размер: 4.45 GB | Добавлен: 5 д. назад | Торрент скачан:1 раз
Скачать  

11-10-2019 20:51 Звёздные войны: Сопротивление Скачать торрент  

Звёздные войны: Сопротивление / Star Wars: Resistance
«Some heroes stick to the plan. Others just wing it»
Производство: США
Год выпуска: 2019
Жанр: мультфильм, короткометражка, фантастика, боевик, приключения
Продолжительность: ~ 00:22:00 серия
Премьера (мир): 7 октября 2018
Премьера (РФ): 1 апреля 2019
Перевод: Профессиональный (многоголосый закадровый) | LostFilm
Субтитры: Английские

Режиссёр: Стюарт Ли, Сол Руис, Боско ЭнДжи

В ролях: Крис Фрил, Сьюзи МакГрат, Джош Бренер, Скотт Лоуренс, Баскет, Мирна Веласко, Джейсон Богарт Хайтауер, Мэри Элизабет МакГлинн, Бобби Мойнахан, Лиам Макинтайр

Описание:
Кадзуда Сионо — молодой пилот, недавно вступивший в ряды Сопротивления под командованием генерала Леи. Несмотря на юный возраст, Кадзуде поручают важное задание — разведать, чем занимается Первый орден.



Качество: WEB-DL 1080p
Формат: MKV

Видео: AVC, 1920 x 1080 (1.778), 23.976 fps, ~4955 kbps
Аудио Rus: AC-3, 48 kHz, 2 ch, 384 kbps |LostFilm|
Аудио Eng: AC-3, 48 kHz, 6 ch, 384 kbps |Original|


Реклама: Отсутствует
Общее
Уникальный идентификатор : 282579171550173361517503787872399106282 (0xD496C4D10CFF7DF9FAA1DF659213A0EA)
Полное имя : E:\_Сериалы\_Сериалы\Звездные войны\Star.Wars.Resistance.S02.1080p.WEB-DL.LostFilm\Star.Wars.Resistance.S02E01.1080p.WEB-DL.LostFilm.mkv
Формат : Matroska
Версия формата : Version 4
Размер файла : 906 Мбайт
Продолжительность : 22 м. 7 с.
Общий поток : 5725 Кбит/сек
Дата кодирования : UTC 2019-10-11 19:39:52
Программа кодирования : mkvmerge v38.0.0 ('The Silent Type') 64-bit
Библиотека кодирования : libebml v1.3.9 + libmatroska v1.5.2

Видео
Идентификатор : 1
Формат : AVC
Формат/Информация : Advanced Video Codec
Профиль формата : High@L4
Настройки формата : CABAC / 4 Ref Frames
Параметр CABAC формата : Да
Параметр RefFrames формата : 4 кадра
Идентификатор кодека : V_MPEG4/ISO/AVC
Продолжительность : 22 м. 7 с.
Битрейт : 4955 Кбит/сек
Ширина : 1920 пикселей
Высота : 1080 пикселей
Соотношение сторон : 16:9
Режим частоты кадров : Постоянный
Частота кадров : 23,976 (24000/1001) кадра/сек
Цветовое пространство : YUV
Субдискретизация насыщенности : 4:2:0
Битовая глубина : 8 бит
Тип развёртки : Прогрессивная
Бит/(Пиксели*Кадры) : 0.100
Размер потока : 784 Мбайт (87%)
Язык : English
Default : Да
Forced : Нет
Цветовой диапазон : Limited
Основные цвета : BT.709
Характеристики трансфера : BT.709
Коэффициенты матрицы : BT.709

Аудио #1
Идентификатор : 2
Формат : AC-3
Формат/Информация : Audio Coding 3
Коммерческое название : Dolby Digital
Идентификатор кодека : A_AC3
Продолжительность : 22 м. 7 с.
Вид битрейта : Постоянный
Битрейт : 384 Кбит/сек
Каналы : 2 канала
ChannelLayout : L R
Частота : 48,0 КГц
Частота кадров : 31,250 кадров/сек (1536 SPF)
Метод сжатия : С потерями
Задержка видео : -42 мс.
Размер потока : 60,8 Мбайт (7%)
Язык : Russian
ServiceKind/String : Complete Main
Default : Да
Forced : Нет

Аудио #2
Идентификатор : 3
Формат : AC-3
Формат/Информация : Audio Coding 3
Коммерческое название : Dolby Digital
Идентификатор кодека : A_AC3
Продолжительность : 22 м. 7 с.
Вид битрейта : Постоянный
Битрейт : 384 Кбит/сек
Каналы : 6 каналов
ChannelLayout : L R C LFE Ls Rs
Частота : 48,0 КГц
Частота кадров : 31,250 кадров/сек (1536 SPF)
Метод сжатия : С потерями
Задержка видео : -42 мс.
Размер потока : 60,7 Мбайт (7%)
Язык : English
ServiceKind/String : Complete Main
Default : Нет
Forced : Нет

Текст
Идентификатор : 4
Формат : UTF-8
Идентификатор кодека : S_TEXT/UTF8
Идентификатор кодека/Информация : UTF-8 Plain Text
Продолжительность : 21 м. 14 с.
Битрейт : 118 бит/сек
ElementCount : 488
Размер потока : 18,5 Кбайт (0%)
Язык : English
Default : Нет
Forced : Нет
Раздача ведётся путём добавления новых серий; при каждом добавлении создаётся новый торрент.
Чтобы начать докачку новой серии, пользователям необходимо сделать следующее:
1. остановить скачивание,
2. удалить старый торрент у себя из клиента (старые серии удалять не надо),
3. скачать новый торрент и запустить его у себя в клиенте вместо старого, при этом указать клиенту путь в старую папку, куда и должно происходить скачивание новых серий.

Ваш клиент при этом должен произвести хеширование (проверку) старой папки (если не производит сам - помогите ему сделать это), и будет докачивать только те серии которых у вас ещё нет. Старые серии при этом не удаляются, а продолжают раздаваться!

Eсли вы уже удалили старые серии, то предотвратить повторную закачку старых серий можно, отжав галочку в соответствующих местах при запуске нового торрента. По возможности, желательно не удалять старые серии как можно дольше, чтобы релизёр не столько продолжал раздавать старые серии, а смог сконцентрироваться на новых.

Совет для тех, кто не хочет ждать перехеширования:
Создайте ещё одну папку рядом с папкой сериала (рядом, а не в ней!!!). Каждую новую серию после удачной загрузки копируйте в новую папку так чтобы ваша основная папка всегда была пуста. Когда ваш новый торрент предложит вам закачать все файлы, выберете только последнюю. Для сидирования же укажите адрес новой папки.

Как закачать отдельный файл из торрента или докачать ранее пропущенные файлы торрента!
1. Открыть торрент
2. Снять галки с тех файлов торрента, которые мы не хотим закачивать. Оставляем только на нужных нам файлах (файле).
3. Нажать О.К.

В клиенте utorrent

Инструкция

1) Открыть торрент


2) Снять галки с тех файлов торрента, которые мы не хотим закачивать:

* либо вручную, снимая с каждого файла галку( скрин №1)
* либо, нажав кнопку "Снять метки (Select None)", сняв сразу со всех файлов(скрин №2)
№1

№2

Оставляем только на нужных нам файлах (файле).

3)Нажать О.К
Приятного просмотра!!!pb.wtf



Скачать Звёздные войны: Сопротивление через торрент https://i3.imageban.ru/out/2019/10/11/23d1b9e09f2c9af6a03b9745a4fad920.png Скачать фильм Звёздные войны: Сопротивление через торрент бесплантно в хорошем качестве Описание:Кадзуда Сионо — молодой пилот, недавно вступивший в ряды Сопротивления под командованием генерала Леи. Несмотря на юный возраст, ... 8.2 10 5
Торрент: Зарегистрирован [2019-11-11 20:32] · скачан: 1 раз
Статус: √ проверено
Размер: 4.45 GB
Как cкачать? Как скачать Звёздные войны: Сопротивление через торрент | qTorrent


>> Регистрируемся здесь <<






Отзывы и комментарии о схеме читаем и пишем здесь: ---> Отзывы и комментарии о схеме

Новые благодарочки в телеграм довольных пользователей:
скриншот   скриншот   скриншот   скриншот   скриншот
    Дорогой пользователь! Огромная просьба, поблагодарите релизера, оцените раздачу и оставьте свои комментарий, если Вы скачали Звёздные войны: Сопротивление через торрент бесплатно! Внесите свою лепту в развитие PiratBit!
    Комментировать посты могут только пользователи прошедшие не сложную регистрацию
    Показать сообщения:    

    Звёздные войны: Сопротивление через торрент
    Скачать бесплатно Звёздные войны: Сопротивление
    Звёздные войны: Сопротивление скачать торрент
    Звёздные войны: Сопротивление смотреть онлайн
    Cкачать фильм Звёздные войны: Сопротивление бесплатно
    Звёздные войны: Сопротивление скачать торрент в хорошем качестве
    Звёздные войны: Сопротивление смотреть онлайн бесплатно в хорошем качестве


    Вы не можете начинать темы
    Вы не можете отвечать на сообщения
    Вы не можете редактировать свои сообщения
    Вы не можете удалять свои сообщения
    Вы не можете голосовать в опросах
    Вы не можете прикреплять файлы к сообщениям
    Вы можете скачивать файлы