новый адрес пиратбит piratbit
Мега распродажа FORZA HORIZON 4 ULTIMATE+ВСЕ DLC+ОНЛАЙН всего за 499р. 349 руб. (супер цена). Внимание количество ограничено!!!

iTunes

1+1

iTunes

мы

iTunes

1

iTunes

Чернобыль

iTunes

Ральф против интернета

Лицензия

ПШазам

Лицензия

Игра престолов

Лицензия

30
pack

ВАЖНО

!!Акция!!

Alien_RageХит недели

RePack

Resident Evil 21

ИГРА 18+

pack

RePack

Metro:Exodus

!!Акция!!

Alien_Rage

RePack

fifa19

RePack

Assassins Creed: Odyssey

RePack

NEED FOR SPEED™ PAYBACK

3 сезон

9 сезон

Бесстыжие 9 сезон

Все сериалы

все сериалы на PB.wtf

RePack

FAR CRY 5
Ребята, катастрофически не хватает 1900р. для оплаты серверов за Октябрь (всвязи с блокировками трафик упал в 3 раза), 1-2р., выручайте.
  

Звёздные войны: Сопротивление / Star Wars: Resistance / Сезон: 1 / Серии: 1-20 из 20 (Стюарт Ли, Боско ЭнДжи) [2018, фантастика, приключения, WEB-DL 1080p] DUB [Невафильм] pb.wtf

Звёздные войны: Сопротивление через торрент pb.wtf

Раздают: 1 [ 0 KB/s ]
Размер: 18.24 GB | Добавлен: 1 мес. назад | Торрент скачан:7 раз
Скачать  

11-10-2019 20:59 Звёздные войны: Сопротивление Скачать торрент  

Звёздные войны: Сопротивление / Star Wars: Resistance

Производство: США, Lucasfilm Ltd, DisneyXD
Жанр: Фантастика, Анимация, Приключения
Продолжительность: ~00:22:00 серия
Перевод: Дублированный | Невафильм
Субтитры: отсутствуют

Режиссер: Стюарт Ли, Боско ЭнДжи, Sergio Paez

В ролях: Крис Фрил, Алексис Лэнг, Джош Бренер, Сьюзи МакГрат, Bucket, Скотт Лоуренс, Ди Брэдли Бейкер, Джонатан Липоу, Това Фелдшух, Мирна Веласко

Описание:
Кадзуда Сионо — молодой пилот, недавно вступивший в ряды Сопротивления под командованием генерала Леи. Несмотря на юный возраст, Кадзуде поручают важное задание — разведать, чем занимается Первый орден.



Качество: WEB-DL 1080p
Формат: MKV

Видео: AVC/H.264, 1920x1080 (16:9), ~4 703 Kbps
Аудио 1: AC3, 2 ch, 192 Kbps - дублированный
Аудио 2: AC3, 6 ch, 384 Kbps - оригинал
General
Unique ID : 298958176254228920656608090163600173590 (0xE0E94018B0AD175DC4183366C40C2A16)
Complete name : Star Wars Resistance [S01] [1080p]\Star.Wars.Resistance.S01E01.The.Recruit.1080p.WEB-DL.DD5.1.AAC2.0.H.264.mkv
Format : Matroska
Format version : Version 4
File size : 1.60 GiB
Duration : 43 min 24 s
Overall bit rate : 5 281 kb/s
Encoded date : UTC 2019-04-03 17:57:58
Writing application : mkvmerge v32.0.0 ('Astral Progressions') 64-bit
Writing library : libebml v1.3.7 + libmatroska v1.5.0

Video
ID : 1
Format : AVC
Format/Info : Advanced Video Codec
Format profile : High@L4
Format settings : CABAC / 4 Ref Frames
Format settings, CABAC : Yes
Format settings, ReFrames : 4 frames
Codec ID : V_MPEG4/ISO/AVC
Duration : 43 min 24 s
Bit rate : 4 703 kb/s
Width : 1 920 pixels
Height : 1 080 pixels
Display aspect ratio : 16:9
Frame rate mode : Constant
Frame rate : 23.976 (24000/1001) FPS
Color space : YUV
Chroma subsampling : 4:2:0
Bit depth : 8 bits
Scan type : Progressive
Bits/(Pixel*Frame) : 0.095
Stream size : 1.43 GiB (89%)
Title : H.264
Language : English
Default : Yes
Forced : No
Color range : Limited
Color primaries : BT.709
Transfer characteristics : BT.709
Matrix coefficients : BT.709

Audio #1
ID : 2
Format : AC-3
Format/Info : Audio Coding 3
Commercial name : Dolby Digital
Codec ID : A_AC3
Duration : 43 min 24 s
Bit rate mode : Constant
Bit rate : 192 kb/s
Channel(s) : 2 channels
Channel layout : L R
Sampling rate : 48.0 kHz
Frame rate : 31.250 FPS (1536 SPF)
Bit depth : 16 bits
Compression mode : Lossy
Stream size : 59.6 MiB (4%)
Language : Russian
Service kind : Complete Main
Default : Yes
Forced : No

Audio #2
ID : 3
Format : AC-3
Format/Info : Audio Coding 3
Commercial name : Dolby Digital
Codec ID : A_AC3
Duration : 43 min 24 s
Bit rate mode : Constant
Bit rate : 384 kb/s
Channel(s) : 6 channels
Channel layout : L R C LFE Ls Rs
Sampling rate : 48.0 kHz
Frame rate : 31.250 FPS (1536 SPF)
Bit depth : 16 bits
Compression mode : Lossy
Stream size : 119 MiB (7%)
Title : DD5.1
Language : English
Service kind : Complete Main
Default : No
Forced : No
01. Новобранец / The Recruit (43 min)
02. Тройная тьма / The Triple Dark
03. Топливо для скорости / Fuel for the Fire
04. Высокая башня / The High Tower
05. Дети с Техара / The Children from Tehar
06. Сигнал из шестого сектора / Signal from Sector Six
07. Счет Синары / Synara's Score
08. Традиционная гонка Платформы / The Platform Classic
09. Секреты и голограммы / Secrets and Holograms
10. Станция Тета-Блэк / Station Theta Black
11. Бибо / Bibo
12. Опасный бизнес / Dangerous Business
13. Дилемма Дозы / The Doza Dilemma
14. Оккупация Первого Ордена / The First Order Occupation
15. Новый солдат / The New Trooper
16. Проблема с ядром / The Core Problem
17. Исчезнувшие / The Disappeared
18. Погружение / Descent
19. Спасения нет: Часть 1 / No Escape: Part 1
20. Спасения нет: Часть 2 / No Escape: Part 2
Скриншоты:
pb.wtf



Скачать Звёздные войны: Сопротивление через торрент https://b.radikal.ru/b37/1904/a7/5437be0d656d.jpg Скачать фильм Звёздные войны: Сопротивление через торрент бесплантно в хорошем качестве Описание:Кадзуда Сионо — молодой пилот, недавно вступивший в ряды Сопротивления под командованием генерала Леи. Несмотря на юный возраст, ... 10 10 2
Торрент: Зарегистрирован [2019-10-11 20:59] · скачан: 7 раз
Статус: √ проверено
Размер: 18.24 GB
Как cкачать? Как скачать Звёздные войны: Сопротивление через торрент | qTorrent

% Раздел Тема Автор DL S | L
Мультсериалы [ 4.45 GB ] Звёздные войны: Сопротивление / Star Wars: Resistance / Сезон: 2 / Серии: 1-5 из 11 [2019 мультфильм WEB-DL 1080p] MVO [LostFilm] bober100 Скачать
1 | 2
Мультсериалы [ 18.87 GB ] Звёздные войны: Сопротивление / Star Wars: Resistance / Сезон: 1 / Серии: 1-20 из 20 [2018 мультфильм WEB-DL 1080p] MVO [TVShows] bober100 Скачать
1 | 0
Мультсериалы [ 2.92 GB ] Звёздные войны: Сопротивление / Star Wars Resistance / Сезон: 1 / Серии: 1-10 из 10 [2018 мультфильм WEB-DLRip] MVO [LostFilm] bober100 Скачать
1 | 0


>> Регистрируемся здесь <<






Отзывы и комментарии о схеме читаем и пишем здесь: ---> Отзывы и комментарии о схеме

Новые благодарочки в телеграм довольных пользователей:
скриншот   скриншот   скриншот   скриншот   скриншот
    Дорогой пользователь! Огромная просьба, поблагодарите релизера, оцените раздачу и оставьте свои комментарий, если Вы скачали Звёздные войны: Сопротивление через торрент бесплатно! Внесите свою лепту в развитие PiratBit!
    Комментировать посты могут только пользователи прошедшие не сложную регистрацию
    Показать сообщения:    

    Звёздные войны: Сопротивление через торрент
    Скачать бесплатно Звёздные войны: Сопротивление
    Звёздные войны: Сопротивление скачать торрент
    Звёздные войны: Сопротивление смотреть онлайн
    Cкачать фильм Звёздные войны: Сопротивление бесплатно
    Звёздные войны: Сопротивление скачать торрент в хорошем качестве
    Звёздные войны: Сопротивление смотреть онлайн бесплатно в хорошем качестве


    Вы не можете начинать темы
    Вы не можете отвечать на сообщения
    Вы не можете редактировать свои сообщения
    Вы не можете удалять свои сообщения
    Вы не можете голосовать в опросах
    Вы не можете прикреплять файлы к сообщениям
    Вы можете скачивать файлы