новый адрес
Ссылка на приватное зеркало всего за 1$. Внимание количество ограничено!!!

iTunes

1+1

iTunes

мы

WEB-DL

1

iTunes

Чернобыль

iTunes

Ральф против интернета

Лицензия

ПШазам

Лицензия

Оно 2

Лицензия

30
pack

Вам бонус

ВАЖНО

!!Акция!!

Alien_RageХит недели

RePack

Resident Evil 21

ИГРА 18+

pack

RePack

jed

!!Акция!!

Alien_Rage

RePack

fifa19

RePack

Assassins Creed: Odyssey

RePack

NEED FOR SPEED™ PAYBACK

3 сезон

9 сезон

Бесстыжие 9 сезон

Все сериалы

все сериалы на PB.wtf

RePack

FAR CRY 5
Ребята, катастрофически не хватает 1900р. для оплаты серверов за Октябрь (всвязи с блокировками трафик упал в 3 раза), 1-2р., выручайте.
  

Пункт назначения: Смайл / Полароид / Polaroid (Ларс Клевберг) [2019, Ужасы, триллер, драма, BDRip-AVC] DUB [iTunes] - ExKinoRay pb.wtf

Пункт назначения: Смайл через торрент pb.wtf

Раздают: 42 [ 689 KB/s ] Качают: 1 [ 2 MB/s ]
Размер: 1.61 GB | Добавлен: 1 мес. 26 д. назад | Торрент скачан:330 раз
Скачать  

11-10-2019 23:29 Пункт назначения: Смайл Скачать торрент  

Название: Пункт назначения: Смайл
Оригинальное название: Polaroid
Год выхода: 2019
Жанр: Ужасы, триллер, детектив
Страна: Канада, Норвегия, США
Перевод: Дублированный | iTunes
Продолжительность: 01:27:59
Режиссер: Ларс Клевберг
В ролях: Кэтрин Прескотт, Тайлер Янг, Саманта Логан, Кинэн Трэйси, Присцилла Квинтана, Хавьер Ботет, Митч Пилледжи, Дави Сантос, Кэти Стивенс, Грейс Забриски.

Описание: В руки к нелюдимой старшекласснице Бёрд, работающей в антикварном магазине, попадает винтажный фотоаппарат Polaroid. Девушка тут же делает снимок коллеги, а позже подруга вытаскивает её на вечеринку, где все тоже очень любят фотографироваться. В этот же вечер Бёрд узнаёт, что парень из магазина мёртв, а когда погибает и хозяйка вечеринки, Бёрд начинает догадываться, кто умрёт следующим. Дьявольское устройство убивает любого, кто окажется на фотографии, сделанной с его помощью, и теперь группа подростков должна разрешить загадку проклятия, пока фотоаппарат не прикончил их всех.

rating

Формат: MKV
Качество: BDRip-AVC
Видео: MPEG-4 AVC, 1024x426 (2.40:1), 24.000 fps, 1790 Kbps, 0.171 bit/pixel
Аудио 1: 48 kHz, AC3 Dolby Digital, 3/2 (L,C,R,l,r) + LFE ch, ~384 kbps RUS |
Аудио 2: 48 kHz, AC3 Dolby Digital, 3/2 (L,C,R,l,r) + LFE ch, 448 Kbps | Оригинал | ENG |
Субтитры: Русские (Full-length (Наталья Раевская)), английские
General
Unique ID : 249343635019427172903642492533988560626 (0xBB95D65A1ED054DC9221F616C3768EF2)
Complete name : F:\Polaroid.2019.BDRip.AVC.ExKinoRay.mkv
Format : Matroska
Format version : Version 2
File size : 1.61 GiB
Duration : 1 h 27 min
Overall bit rate : 2 620 kb/s
Movie name : Polaroid 2019 from ExKinoRay
Encoded date : UTC 2019-10-11 21:06:01
Writing application : mkvmerge v5.6.0 ('Kenya Kane') built on May 27 2012 16:44:04
Writing library : libebml v1.2.3 + libmatroska v1.3.0

Video
ID : 1
Format : AVC
Format/Info : Advanced Video Codec
Format profile : High@L4.1
Format settings, CABAC : Yes
Format settings, ReFrames : 11 frames
Codec ID : V_MPEG4/ISO/AVC
Duration : 1 h 27 min
Bit rate : 1 790 kb/s
Width : 1 024 pixels
Height : 426 pixels
Display aspect ratio : 2.40:1
Frame rate mode : Constant
Frame rate : 24.000 FPS
Color space : YUV
Chroma subsampling : 4:2:0
Bit depth : 8 bits
Scan type : Progressive
Bits/(Pixel*Frame) : 0.171
Stream size : 1.07 GiB (66%)
Title : Enigma
Writing library : x264 core 152 r2851 ba24899
Encoding settings : cabac=1 / ref=11 / deblock=1:-2:-2 / analyse=0x3:0x113 / me=umh / subme=10 / psy=1 / psy_rd=1.05:0.10 / mixed_ref=1 / me_range=32 / chroma_me=1 / trellis=2 / 8x8dct=1 / cqm=0 / deadzone=21,11 / fast_pskip=0 / chroma_qp_offset=-3 / threads=12 / lookahead_threads=3 / sliced_threads=0 / nr=0 / decimate=0 / interlaced=0 / bluray_compat=0 / constrained_intra=0 / bframes=14 / b_pyramid=2 / b_adapt=2 / b_bias=0 / direct=3 / weightb=1 / open_gop=0 / weightp=2 / keyint=240 / keyint_min=24 / scenecut=40 / intra_refresh=0 / rc=2pass / mbtree=0 / bitrate=1790 / ratetol=1.0 / qcomp=0.60 / qpmin=0 / qpmax=51 / qpstep=4 / cplxblur=20.0 / qblur=0.5 / ip_ratio=1.40 / pb_ratio=1.30 / aq=1:1.00
Language : English
Default : Yes
Forced : No
Color range : Limited
Color primaries : BT.709
Transfer characteristics : BT.709
Matrix coefficients : BT.709

Audio #1
ID : 2
Format : AC-3
Format/Info : Audio Coding 3
Mode extension : CM (complete main)
Format settings, Endianness : Big
Codec ID : A_AC3
Duration : 1 h 27 min
Bit rate mode : Constant
Bit rate : 384 kb/s
Channel(s) : 6 channels
Channel positions : Front: L C R, Side: L R, LFE
Sampling rate : 48.0 kHz
Frame rate : 31.250 FPS (1536 spf)
Compression mode : Lossy
Stream size : 242 MiB (15%)
Title : iTunes
Language : Russian
Default : Yes
Forced : No

Audio #2
ID : 3
Format : AC-3
Format/Info : Audio Coding 3
Mode extension : CM (complete main)
Format settings, Endianness : Big
Codec ID : A_AC3
Duration : 1 h 27 min
Bit rate mode : Constant
Bit rate : 448 kb/s
Channel(s) : 6 channels
Channel positions : Front: L C R, Side: L R, LFE
Sampling rate : 48.0 kHz
Frame rate : 31.250 FPS (1536 spf)
Compression mode : Lossy
Stream size : 282 MiB (17%)
Language : English
Default : No
Forced : No

Text #1
ID : 4
Format : UTF-8
Codec ID : S_TEXT/UTF8
Codec ID/Info : UTF-8 Plain Text
Title : Full (Enigma)
Language : Russian
Default : No
Forced : No

Text #2
ID : 5
Format : UTF-8
Codec ID : S_TEXT/UTF8
Codec ID/Info : UTF-8 Plain Text
Language : English
Default : No
Forced : No

Menu
00:00:00.000 : en:Chapter 01
00:07:03.000 : en:Chapter 02
00:12:44.708 : en:Chapter 03
00:20:39.791 : en:Chapter 04
00:27:07.833 : en:Chapter 05
00:30:51.125 : en:Chapter 06
00:34:17.500 : en:Chapter 07
00:39:37.250 : en:Chapter 08
00:44:51.875 : en:Chapter 09
00:48:46.166 : en:Chapter 10
00:53:24.166 : en:Chapter 11
00:59:33.583 : en:Chapter 12
01:07:28.250 : en:Chapter 13
01:12:48.708 : en:Chapter 14
01:17:49.541 : en:Chapter 15
01:23:02.125 : en:Chapter 16


Релиз от:

Автор релиза: pb.wtf



Скачать Пункт назначения: Смайл через торрент http://lostpix.com/thumbs/2019-10/09/yi7m5l58uf7tp2lux7rgo4vim.png Скачать фильм Пункт назначения: Смайл через торрент бесплантно в хорошем качестве Описание: В руки к нелюдимой старшекласснице Бёрд, работающей в антикварном магазине, попадает винтажный фотоаппарат Polaroid. Девушка тут ... 9.9 10 11
Info! Золотая раздача, скачанное не засчитывается.
Торрент: Зарегистрирован [2019-10-11 23:29] · скачан: 330 раз
Статус: √ проверено
Размер: 1.61 GB
Как cкачать? Как скачать Пункт назначения: Смайл через торрент | qTorrent

28-11-2019 20:33  

Отключить всю рекламу на сайте

15-10-2019 19:02 Пункт назначения: Смайл Скачать торрент  

Полнейший хлам!!!pb.wtf



16-10-2019 01:22 Пункт назначения: Смайл Скачать торрент  

Destroyer087 писал(а):

Полнейший хлам!!!

Полностью поддерживаю))pb.wtf



16-10-2019 18:23 Пункт назначения: Смайл Скачать торрент  

хлам начался с перевода названия...pb.wtf



19-10-2019 16:20 Пункт назначения: Смайл Скачать торрент  

Это к фильму "Пункт назначения" вообще ни какого отношения не имеетpb.wtf



    Дорогой пользователь! Огромная просьба, поблагодарите релизера, оцените раздачу и оставьте свои комментарий, если Вы скачали Пункт назначения: Смайл через торрент бесплатно! Внесите свою лепту в развитие PiratBit!
    Комментировать посты могут только пользователи прошедшие не сложную регистрацию
    Показать сообщения:    

    Пункт назначения: Смайл через торрент
    Скачать бесплатно Пункт назначения: Смайл
    Пункт назначения: Смайл скачать торрент
    Пункт назначения: Смайл смотреть онлайн
    Cкачать фильм Пункт назначения: Смайл бесплатно
    Пункт назначения: Смайл скачать торрент в хорошем качестве
    Пункт назначения: Смайл смотреть онлайн бесплатно в хорошем качестве


    Вы не можете начинать темы
    Вы не можете отвечать на сообщения
    Вы не можете редактировать свои сообщения
    Вы не можете удалять свои сообщения
    Вы не можете голосовать в опросах
    Вы не можете прикреплять файлы к сообщениям
    Вы можете скачивать файлы