Ссылка на приватное зеркало всего за 1$. Внимание количество ограничено!!!

iTunes

1+1

iTunes

мы

WEB-DL

1

iTunes

Чернобыль

iTunes

Ральф против интернета

Лицензия

ПШазам

Лицензия

Оно 2

Лицензия

30
pack

Вам бонус

ВАЖНО

!!Акция!!

Alien_RageХит недели

RePack

Resident Evil 21

ИГРА 18+

pack

RePack

jed

!!Акция!!

Alien_Rage

RePack

fifa19

RePack

Assassins Creed: Odyssey

RePack

NEED FOR SPEED™ PAYBACK

3 сезон

9 сезон

Бесстыжие 9 сезон

Все сериалы

все сериалы на PB.wtf

RePack

FAR CRY 5
Ребята, катастрофически не хватает 1900р. для оплаты серверов за Октябрь (всвязи с блокировками трафик упал в 3 раза), 1-2р., выручайте.
  

Пункт назначения: Смайл / Полароид / Polaroid (Ларс Клевберг) [2019, Ужасы, триллер, драма, BDRip-AVC] DUB [iTunes] +MVO [HDRezka Studio] pb.wtf

Пункт назначения: Смайл через торрент pb.wtf

Раздают: 12 [ 3 KB/s ]
Размер: 1.83 GB | Добавлен: 2 мес. 2 д. назад | Торрент скачан:311 раз
Скачать  

12-10-2019 01:38 Пункт назначения: Смайл Скачать торрент  

Пункт назначения: Смайл / Полароид / Polaroid
«Beware This Camera...Once You Take It, It Takes You»

Год выпуска: 2019
Страна: Канада , Норвегия , США
Жанр: Ужасы, триллер, драма
Продолжительность: 01:28:00
Перевод:

#1 Дублированный | iTunes
#2 Профессиональный (многоголосый закадровый) | HDRezka Studio

Субтитры: Русские (полные)***, Английские (полные)

Режиссер: Ларс Клевберг

rating

В ролях: Кэтрин Прескотт, Тайлер Янг, Саманта Логан, Кинэн Трэйси, Присцилла Квинтана, Хавьер Ботет, Митч Пиледжи, Дави Сантос, Кэти Стивенс, Грэйс Забриски, Мэделин Петш, Эрика Курата-Превост, Шона Макдональд, Риз Беван-Джон

Описание: В руки к нелюдимой старшекласснице Бёрд, работающей в антикварном магазине, попадает винтажный фотоаппарат Polaroid. Девушка тут же делает снимок коллеги, а позже подруга вытаскивает её на вечеринку, где все тоже очень любят фотографироваться. В этот же вечер Бёрд узнаёт, что парень из магазина мёртв, а когда погибает и хозяйка вечеринки, Бёрд начинает догадываться, кто умрёт следующим. Дьявольское устройство убивает любого, кто окажется на фотографии, сделанной с его помощью, и теперь группа подростков должна разрешить загадку проклятия, пока фотоаппарат не прикончил их всех.

Качество: BDRip-AVC
Формат: MKV

Видео: 1024x426 (2.40:1), 24,000 fps, x264 ~1 954 kbps avg, 0.187 bit/pixel
Аудио#1: 48 kHz, AC3 Dolby Digital, 3/2 (L,C,R,l,r) + LFE ch, ~384.00 kbps avg | RUS (iTunes)
Аудио#2: 48 kHz, AC3 Dolby Digital, 2 (L,R), ~192.00 kbps avg | RUS (HDRezka Studio)
Аудио#3: 48 kHz, AC3 Dolby Digital, 3/2 (L,C,R,l,r) + LFE ch, ~448.00 kbps avg | ENG
скриншот  скриншот  скриншот  

скриншот  скриншот  скриншот  

Общее
Уникальный идентификатор: 257022071567265195789039740158848067218 (0xC15CA6809D028ADDE8944BA77F88E692)
Полное имя: F:\OlLanDGroup\Polaroid.2019.BDRip(AVC).OllanDGroup.mkv
Формат: Matroska
Версия формата: Version 4 / Version 2
Размер файла: 1,83 Гбайт
Продолжительность: 1 ч. 27 м.
Общий поток: 2976 Кбит/сек
Название фильма: Polaroid 2019 #TorpedoUK#
Дата кодирования: UTC 2019-10-12 01:03:10
Программа кодирования: mkvmerge v29.0.0 ('Like It Or Not') 64-bit
Библиотека кодирования: libebml v1.3.6 + libmatroska v1.4.9

Видео
Идентификатор: 1
Формат: AVC
Формат/Информация: Advanced Video Codec
Профиль формата: High@L4.1
Параметр CABAC формата: Да
Параметр ReFrames формата: 10 кадров
Идентификатор кодека: V_MPEG4/ISO/AVC
Продолжительность: 1 ч. 27 м.
Битрейт: 1954 Кбит/сек
Ширина: 1024 пикселя
Высота: 426 пикселей
Соотношение сторон: 2,40:1
Режим частоты кадров: Постоянный
Частота кадров: 24,000 кадра/сек
Цветовое пространство: YUV
Субдискретизация насыщенности: 4:2:0
Битовая глубина: 8 бит
Тип развёртки: Прогрессивная
Бит/(Пиксели*Кадры): 0.187
Размер потока: 1,20 Гбайт (66%)
Библиотека кодирования: x264 core 146 r2538 121396c
Настройки программы: cabac=1 / ref=10 / deblock=1:-2:-3 / analyse=0x3:0x113 / me=umh / subme=11 / psy=1 / psy_rd=0.95:0.07 / mixed_ref=1 / me_range=48 / chroma_me=1 / trellis=2 / 8x8dct=1 / cqm=0 / deadzone=21,11 / fast_pskip=1 / chroma_qp_offset=-3 / threads=6 / lookahead_threads=1 / sliced_threads=0 / nr=0 / decimate=1 / interlaced=0 / bluray_compat=0 / constrained_intra=0 / bframes=11 / b_pyramid=2 / b_adapt=2 / b_bias=0 / direct=3 / weightb=1 / open_gop=0 / weightp=2 / keyint=240 / keyint_min=24 / scenecut=40 / intra_refresh=0 / rc_lookahead=40 / rc=2pass / mbtree=0 / bitrate=1954 / ratetol=1.0 / qcomp=0.60 / qpmin=0 / qpmax=69 / qpstep=4 / cplxblur=20.0 / qblur=0.5 / vbv_maxrate=50000 / vbv_bufsize=62500 / nal_hrd=none / filler=0 / ip_ratio=1.40 / pb_ratio=1.30 / aq=1:1.00
Язык: English
Default: Да
Forced: Нет

Аудио #1
Идентификатор: 2
Формат: AC-3
Формат/Информация: Audio Coding 3
Расширение режима: CM (complete main)
Параметр Endianness формата: Big
Идентификатор кодека: A_AC3
Продолжительность: 1 ч. 27 м.
Вид битрейта: Постоянный
Битрейт: 384 Кбит/сек
Каналы: 6 каналов
Расположение каналов: Front: L C R, Side: L R, LFE
Частота: 48,0 КГц
Частота кадров: 31,250 кадров/сек (1536 spf)
Битовая глубина: 16 бит
Метод сжатия: С потерями
Размер потока: 241 Мбайт (13%)
Заголовок: DUB [iTunes]
Язык: Russian
Default: Да
Forced: Нет

Аудио #2
Идентификатор: 3
Формат: AC-3
Формат/Информация: Audio Coding 3
Расширение режима: CM (complete main)
Параметр Endianness формата: Big
Идентификатор кодека: A_AC3
Продолжительность: 1 ч. 27 м.
Вид битрейта: Постоянный
Битрейт: 192 Кбит/сек
Каналы: 2 канала
Расположение каналов: Front: L R
Частота: 48,0 КГц
Частота кадров: 31,250 кадров/сек (1536 spf)
Битовая глубина: 16 бит
Метод сжатия: С потерями
Размер потока: 121 Мбайт (6%)
Заголовок: MVO [HDRezka Studio]
Язык: Russian
Default: Нет
Forced: Нет

Аудио #3
Идентификатор: 4
Формат: AC-3
Формат/Информация: Audio Coding 3
Расширение режима: CM (complete main)
Параметр Endianness формата: Big
Идентификатор кодека: A_AC3
Продолжительность: 1 ч. 27 м.
Вид битрейта: Постоянный
Битрейт: 448 Кбит/сек
Каналы: 6 каналов
Расположение каналов: Front: L C R, Side: L R, LFE
Частота: 48,0 КГц
Частота кадров: 31,250 кадров/сек (1536 spf)
Битовая глубина: 16 бит
Метод сжатия: С потерями
Размер потока: 282 Мбайт (15%)
Заголовок: [Original]
Язык: English
Default: Нет
Forced: Нет

Текст #1
Идентификатор: 5
Формат: UTF-8
Идентификатор кодека: S_TEXT/UTF8
Идентификатор кодека/Информация: UTF-8 Plain Text
Продолжительность: 1 ч. 23 м.
Битрейт: 61 бит/сек
Count of elements: 695
Размер потока: 37,4 Кбайт (0%)
Заголовок: Full (Enigma)
Язык: Russian
Default: Нет
Forced: Нет

Текст #2
Идентификатор: 6
Формат: UTF-8
Идентификатор кодека: S_TEXT/UTF8
Идентификатор кодека/Информация: UTF-8 Plain Text
Продолжительность: 1 ч. 22 м.
Битрейт: 35 бит/сек
Count of elements: 687
Размер потока: 21,5 Кбайт (0%)
Заголовок: Full
Язык: English
Default: Нет
Forced: Нет

Меню
00:00:00.000: en:Chapter 01
00:07:03.000: en:Chapter 02
00:12:44.708: en:Chapter 03
00:20:39.791: en:Chapter 04
00:27:07.833: en:Chapter 05
00:30:51.125: en:Chapter 06
00:34:17.500: en:Chapter 07
00:39:37.250: en:Chapter 08
00:44:51.875: en:Chapter 09
00:48:46.166: en:Chapter 10
00:53:24.166: en:Chapter 11
00:59:33.583: en:Chapter 12
01:07:28.250: en:Chapter 13
01:12:48.708: en:Chapter 14
01:17:49.541: en:Chapter 15
01:23:02.125: en:Chapter 16

pb.wtf



Скачать Пункт назначения: Смайл через торрент http://lostpix.com/thumbs/2019-10/09/yi7m5l58uf7tp2lux7rgo4vim.png Скачать фильм Пункт назначения: Смайл через торрент бесплантно в хорошем качестве Описание: В руки к нелюдимой старшекласснице Бёрд, работающей в антикварном магазине, попадает винтажный фотоаппарат Polaroid. Девушка тут ... 9.3 10 13
Торрент: Зарегистрирован [2019-10-12 01:38] · скачан: 311 раз
Статус: √ проверено
Размер: 1.83 GB
Как cкачать? Как скачать Пункт назначения: Смайл через торрент | qTorrent

% Раздел Тема Автор DL S | L
Фильмы 2019 [DVDrip, WEB-DLRip, HDrip] (DUB, MVO) [ 1.61 GB ] Пункт назначения: Смайл / Полароид / Polaroid [2019 BDRip-AVC] - ExKinoRay Enigma2010 Скачать
58 | 4
# Фильмы (Blu-ray, BD-Remux, HDDVD) [ 23.87 GB ] Пункт назначения: Смайл / Полароид / Polaroid [2019 BD Remux ] Бумер Скачать
1 | 1
Фильмы [HD 720p, 1080p] (Хороший звук DUB, MVO) [ 5.63 GB ] Пункт назначения: Смайл / Полароид / Polaroid [2019 BDRip 1080p] +MVO [HDRezka Studio] bober100 Скачать
12 | 0
Фильмы 2019 [DVDrip, WEB-DLRip, HDrip] (DUB, MVO) [ 1.44 GB ] Пункт назначения: Смайл / Полароид / Polaroid [2019 BDRip] bober100 Скачать
11 | 0
Фильмы [HD 720p, 1080p] (Хороший звук DUB, MVO) [ 3.64 GB ] Пункт назначения: Смайл / Полароид / Polaroid [2019 BDRip 720p] +MVO [HDRezka Studio] bober100 Скачать
2 | 0

28-11-2019 20:33  

Отключить всю рекламу на сайте


    Дорогой пользователь! Огромная просьба, поблагодарите релизера, оцените раздачу и оставьте свои комментарий, если Вы скачали Пункт назначения: Смайл через торрент бесплатно! Внесите свою лепту в развитие PiratBit!
    Комментировать посты могут только пользователи прошедшие не сложную регистрацию
    Показать сообщения:    

    Пункт назначения: Смайл через торрент
    Скачать бесплатно Пункт назначения: Смайл
    Пункт назначения: Смайл скачать торрент
    Пункт назначения: Смайл смотреть онлайн
    Cкачать фильм Пункт назначения: Смайл бесплатно
    Пункт назначения: Смайл скачать торрент в хорошем качестве
    Пункт назначения: Смайл смотреть онлайн бесплатно в хорошем качестве


    Вы не можете начинать темы
    Вы не можете отвечать на сообщения
    Вы не можете редактировать свои сообщения
    Вы не можете удалять свои сообщения
    Вы не можете голосовать в опросах
    Вы не можете прикреплять файлы к сообщениям
    Вы можете скачивать файлы