Ссылка на приватное зеркало всего за 1$. Внимание количество ограничено!!!

OK

1+1

iTunes

мы

OK

1

WEB-DLRip

Джокер

Пифагор

Ведьмак / The Witcher сериал

Лицензия

ПШазам

ОК

Оно 2

iTunes

30
pack

Вам бонус

ВАЖНО

!!Акция!!

Alien_RageХит недели

RePack

Resident Evil 21

ИГРА 18+

pack

RePack

jed

!!Акция!!

Alien_Rage

RePack

fifa19

RePack

Assassins Creed: Odyssey

RePack

NEED FOR SPEED™ PAYBACK

4 сезон

9 сезон

Бесстыжие 9 сезон

Все сериалы

все сериалы на PB.wtf

RePack

FAR CRY 5
  

Нэнси Дрю / Nancy Drew / Сезон: 1 / Серии: 1-10 из 22 (Ларри Тенг) [2019, Детектив, WEB-DL 720p] MVO [Jaskier] pb.wtf

Нэнси Дрю через торрент pb.wtf

Раздают: 2 [ 581 KB/s ] Качают: 1 [ 11 KB/s ]
Размер: 14.38 GB | Добавлен: 2 д. 8 ч. назад | Торрент скачан:3 раза
Скачать  

12-10-2019 02:04 Нэнси Дрю Скачать торрент  

Нэнси Дрю | Nancy Drew

Год выпуска: 2019
Страна: США
Жанр: Детектив
Продолжительность: ~ 00:44:00
Перевод: Профессиональный (многоголосый закадровый) | Jaskier
Субтитры: отсутствуют

Режиссёр: Ларри Тенг

В ролях: Синед Карри, Тони Али, Альвина Аугуст, Уилл Чилтон, Барбара Эдди, Ангела Фэйрфилд, Эден Саммер Гилмор, Мэддисон Джайзани, Тунджи Касим, Леа Льюис

Описание: Нэнси Дрю только что окончила школу и собирается поступать в колледж в другом городе, а пока подрабатывает официанткой. Однако планы придётся отложить — происходит таинственное убийство, в котором подозревают нескольких подростков, в том числе и главную героиню. Ей придётся провести собственное расследование.

rating

Качество: WEB-DL 720p
Формат: MKV

Видео: X264, ~ 4700 kbps, 1280x640, 23.976 fps
Аудио 1: AC3, 48,0 КГц, 6 ch, 384 kbps - RUS
Аудио 2: AC3, 48,0 КГц, 6 ch, 384 kbps - ENG


Реклама: аудио, два раза в начале и в конце по 13 секунд
Общее
Уникальный идентификатор                 : 252783859774280590414241418270561512827 (0xBE2C6687261812238653D99B6393AD7B)
Полное имя                               : V:\Nancy.Drew. Season 1 (720p l Jaskier)\Nancy.Drew.S01E01.720p.Jaskier.mkv
Формат                                   : Matroska
Версия формата                           : Version 2
Размер файла                             : 1,74 Гбайт
Продолжительность                        : 43 м.
Режим общего битрейта                    : Постоянный
Общий поток                              : 5667 Кбит/сек
Дата кодирования                         : UTC 2019-10-12 00:54:20
Программа кодирования                    : mkvmerge v7.8.0 ('River Man') 32bit built on Apr  3 2015 12:11:22
Библиотека кодирования                   : libebml v1.3.1 + libmatroska v1.4.2

Видео
Идентификатор                            : 1
Формат                                   : AVC
Формат/Информация                        : Advanced Video Codec
Профиль формата                          : High@L3.1
Параметр CABAC формата                   : Да
Параметр ReFrames формата                : 4 кадра
Идентификатор кодека                     : V_MPEG4/ISO/AVC
Продолжительность                        : 43 м.
Вид битрейта                             : Постоянный
Битрейт                                  : 4786 Кбит/сек
Номинальный битрейт                      : 6000 Кбит/сек
Ширина                                   : 1280 пикселей
Высота                                   : 640 пикселей
Соотношение сторон                       : 2,000
Режим частоты кадров                     : Постоянный
Частота кадров                           : 23,976 (24000/1001) кадра/сек
Цветовое пространство                    : YUV
Субдискретизация насыщенности            : 4:2:0
Битовая глубина                          : 8 бит
Тип развёртки                            : Прогрессивная
Бит/(Пиксели*Кадры)                      : 0.244
Размер потока                            : 1,47 Гбайт (84%)
Язык                                     : English
Default                                  : Да
Forced                                   : Нет
Цветовой диапазон                        : Limited
Основные цвета                           : BT.709
Характеристики трансфера                 : BT.709
Коэффициенты матрицы                     : BT.709

Аудио #1
Идентификатор                            : 2
Формат                                   : AC-3
Формат/Информация                        : Audio Coding 3
Расширение режима                        : CM (complete main)
Параметр Endianness формата              : Big
Идентификатор кодека                     : A_AC3
Продолжительность                        : 43 м.
Вид битрейта                             : Постоянный
Битрейт                                  : 384 Кбит/сек
Каналы                                   : 6 каналов
Расположение каналов                     : Front: L C R, Side: L R, LFE
Частота                                  : 48,0 КГц
Частота кадров                           : 31,250 кадров/сек (1536 spf)
Метод сжатия                             : С потерями
Размер потока                            : 121 Мбайт (7%)
Язык                                     : Russian
Default                                  : Да
Forced                                   : Нет

Аудио #2
Идентификатор                            : 3
Формат                                   : AC-3
Формат/Информация                        : Audio Coding 3
Расширение режима                        : CM (complete main)
Параметр Endianness формата              : Big
Идентификатор кодека                     : A_AC3
Продолжительность                        : 43 м.
Вид битрейта                             : Постоянный
Битрейт                                  : 384 Кбит/сек
Каналы                                   : 6 каналов
Расположение каналов                     : Front: L C R, Side: L R, LFE
Частота                                  : 48,0 КГц
Частота кадров                           : 31,250 кадров/сек (1536 spf)
Метод сжатия                             : С потерями
Размер потока                            : 121 Мбайт (7%)
Язык                                     : English
Default                                  : Нет
Forced                                   : Нет
Когда раздача ведётся путём добавления новых серий, при каждом добавлении создётся новый торрент. Чтобы начать докачку новой серии, пользователям необходимо сделать следующее:
(1) остановить скачивание,
(2) удалить старый торрент у себя из клиента (старые серии удалять не надо),
(3) скачать новый торрент и запустить его у себя в клиенте вместо старого, при этом указать клиенту путь в старую папку, куда и должно происходить скачивание новых серий.
Ваш клиент при этом должен произвести хеширование (проверку) старой папки (если не производит сам - помогите ему сделать это), и будет докачивать только те серии, которых у вас ещё нет. Старые серии при этом не удаляются, а продолжают раздаваться!
Eсли вы уже удалили старые серии, то предотвратить повторную закачку старых серий можно, отжав галочку в соответсвующих местах при запуске нового торрента. По возможности, желательно не удалять старые серии как можно дольше, чтобы релизёр не столько продолжал раздавать старые серии, а смог сконцентрироваться на новых.
pb.wtf



Скачать Нэнси Дрю через торрент https://i87.fastpic.ru/big/2019/1012/93/6f89762f25d5dc5aa275c21aeb737693.png Скачать фильм Нэнси Дрю через торрент бесплантно в хорошем качестве Описание: Нэнси Дрю только что окончила школу и собирается поступать в колледж в другом городе, а пока подрабатывает официанткой. Однако ... 10 10 3
Торрент: Зарегистрирован [2020-01-18 12:55] · скачан: 3 раз
Статус: √ проверено
Размер: 14.38 GB
Как cкачать? Как скачать Нэнси Дрю через торрент | qTorrent

% Раздел Тема Автор DL S | L
Зарубежные сериалы [ 28.15 GB ] Нэнси Дрю / Nancy Drew / Сезон: 1 / Серии: 1-10 из 22 [2019 WEB-DL 1080p] MVO [TVShows] bober100 Скачать
1 | 0
Зарубежные сериалы [ 27.91 GB ] Нэнси Дрю / Nancy Drew / Сезон: 1 / Серии: 1-10 из 22 [2019 WEB-DL 1080p] MVO [Jaskier] bober100 Скачать
2 | 0
Зарубежные сериалы [ 4.9 GB ] Нэнси Дрю / Nancy Drew / Сезон: 1 / Серии: 1-10 из 22 [2019 WEB-DLRip] MVO [Jaskier] bober100 Скачать
6 | 0
Зарубежные сериалы [ 31.4 GB ] Нэнси Дрю / Nancy Drew / Сезон: 1 / Серии: 1-10 из 22 [2019 WEB-DL 1080p] 2xMVO [Lostfilm Good People] bober100 Скачать
1 | 0

28-11-2019 20:33  

Отключить всю рекламу на сайте

    Дорогой пользователь! Огромная просьба, поблагодарите релизера, оцените раздачу и оставьте свои комментарий, если Вы скачали Нэнси Дрю через торрент бесплатно! Внесите свою лепту в развитие PiratBit!
    Комментировать посты могут только пользователи прошедшие не сложную регистрацию
    Показать сообщения:    

    Нэнси Дрю через торрент
    Скачать бесплатно Нэнси Дрю
    Нэнси Дрю скачать торрент
    Нэнси Дрю смотреть онлайн
    Cкачать фильм Нэнси Дрю бесплатно
    Нэнси Дрю скачать торрент в хорошем качестве
    Нэнси Дрю смотреть онлайн бесплатно в хорошем качестве


    Вы не можете начинать темы
    Вы не можете отвечать на сообщения
    Вы не можете редактировать свои сообщения
    Вы не можете удалять свои сообщения
    Вы не можете голосовать в опросах
    Вы не можете прикреплять файлы к сообщениям
    Вы можете скачивать файлы