Ссылка на приватное зеркало всего за 1$. Внимание количество ограничено!!!

OK

1+1

iTunes

мы

OK

1

WEB-DLRip

Джокер

Пифагор

Ведьмак / The Witcher сериал

Лицензия

ПШазам

ОК

Оно 2

iTunes

30
pack

Вам бонус

ВАЖНО

!!Акция!!

Alien_RageХит недели

RePack

Resident Evil 21

ИГРА 18+

pack

RePack

jed

!!Акция!!

Alien_Rage

RePack

fifa19

RePack

Assassins Creed: Odyssey

RePack

NEED FOR SPEED™ PAYBACK

4 сезон

9 сезон

Бесстыжие 9 сезон

Все сериалы

все сериалы на PB.wtf

RePack

FAR CRY 5
  

Новый Comedy Club / Сезон: 15 / Серии: 1-30 из 35 [2019, ТВ-шоу, юмор, WEB-DL 1080p] pb.wtf

Новый Comedy Club через торрент pb.wtf

Качают: 7 [ 0 KB/s ]
Размер: 44.73 GB | Добавлен: 19 д. назад | Торрент скачан:4 раза
Скачать  

12-10-2019 07:10 Новый Comedy Club Скачать торрент  

Новый Comedy Club Год выпуска: 2019
Страна: Россия
Жанр: ТВ-шоу, юмор
Продолжительность: 00:47:00
Перевод: Не требуется
Субтитры: отсутствуют

В ролях: Гарик Мартиросян, Павел Воля, Гарик Харламов, Тимур Батрутдинов, Александр Ревва, Дмитрий Сорокин, Зураб Матуа, Андрей Аверин, Марина Кравец, Антон Лирник, Андрей Молочный, Александр Незлобин, Виктор Васильев (III), Семён Слепаков

Описание: Невероятная энергетика, уютная атмосфера, гениальный юмор – все это слагаемые успеха самого успешного, модного, смешного и талантливого шоу молодых юмористов, которые никогда не придерживаются никаких правил и границ.

Качество: WEB-DL 1080p
Формат: MKV

Видео: MPEG-4 AVC, 4 500 Кбит/с, 1920x1080
Аудио: AC3, 2 ch, 192 Кбит/с
скриншот  скриншот  скриншот  

Общее
Уникальный идентификатор : 207924729426332727155452819119580023589 (0x9C6CD8A45E94719EA53EB7E7BFFE8B25)
Полное имя : C:\Comedy Club.S15.WEB-DL.(1080p)25Kuzmich\Comedy Club.S15E01.WEB-DL.1080.25Kuzmich.mkv
Формат : Matroska
Версия формата : Version 2
Размер файла : 1,53 Гбайт
Продолжительность : 46 м. 44 с.
Режим общего битрейта : Переменный
Общий поток : 4696 Кбит/сек
Дата кодирования : UTC 2019-10-03 23:46:11
Программа кодирования : mkvmerge v4.0.0 ('The Stars were mine') сборка от Jun 6 2010 16:18:42
Библиотека кодирования : libebml v1.0.0 + libmatroska v1.0.0

Видео
Идентификатор : 1
Формат : AVC
Формат/Информация : Advanced Video Codec
Профиль формата : High@L4
Настройки формата : CABAC / 1 Ref Frames
Параметр CABAC формата : Да
Параметр RefFrames формата : 1 кадр
Идентификатор кодека : V_MPEG4/ISO/AVC
Продолжительность : 46 м. 44 с.
Вид битрейта : Переменный
Битрейт : 4411 Кбит/сек
Максимальный битрейт : 4500 Кбит/сек
Ширина : 1920 пикселей
Высота : 1072 пикселя
Соотношение сторон : 16:9
Режим частоты кадров : Постоянный
Частота кадров : 25,000 кадров/сек
Цветовое пространство : YUV
Субдискретизация насыщенности : 4:2:0
Битовая глубина : 8 бит
Тип развёртки : Прогрессивная
Бит/(Пиксели*Кадры) : 0.086
Размер потока : 1,44 Гбайт (94%)
Язык : Russian
Default : Да
Forced : Нет

Аудио
Идентификатор : 2
Формат : AC-3
Формат/Информация : Audio Coding 3
Коммерческое название : Dolby Digital
Идентификатор кодека : A_AC3
Продолжительность : 46 м. 44 с.
Вид битрейта : Постоянный
Битрейт : 192 Кбит/сек
Каналы : 2 канала
ChannelLayout : L R
Частота : 48,0 КГц
Частота кадров : 31,250 кадров/сек (1536 SPF)
Битовая глубина : 16 бит
Метод сжатия : С потерями
Размер потока : 64,2 Мбайт (4%)
Язык : Russian
ServiceKind/String : Complete Main
Default : Да
Forced : Нет

Внимание! Раздача ведётся путём добавления новых серий; при каждом добавлении создаётся новый торрент. Чтобы начать докачку новой серии, пользователям необходимо сделать следующее:
(1) остановить скачивание,
(2) удалить старый торрент у себя из клиента (старые серии удалять не надо),
(3) скачать новый торрент и запустить его у себя в клиенте вместо старого, при этом указать клиенту путь в старую папку куда и должно происходить скачивание новых серий.
Ваш клиент при этом должен произвести хеширование (проверку) старой папки (если не производит сам - помогите ему сделать это), и будет докачивать только те серии которых у вас ещё нет. Старые серии при этом не удаляются, а продолжают раздаваться!
Eсли вы уже удалили старые серии, то предотвратить повторную закачку старых серий можно, отжав галочку в соответствующих местах при запуске нового торрента. По возможности, желательно не удалять старые серии как можно дольше чтобы релизёр не столько продолжал раздавать старые серии, а смог сконцентрироваться на новых.
pb.wtf



Скачать Новый Comedy Club через торрент http://pic1.kartinco.top/images/12/dhjle.jpg Скачать фильм Новый Comedy Club через торрент бесплантно в хорошем качестве Описание: Невероятная энергетика, уютная атмосфера, гениальный юмор – все это слагаемые успеха самого успешного, модного, смешного и ... 9.3 10 13
Info! Золотая раздача, скачанное не засчитывается.
Торрент: Зарегистрирован [2020-01-01 01:29] · скачан: 4 раз
Статус: √ проверено
Размер: 44.73 GB
Как cкачать? Как скачать Новый Comedy Club через торрент | qTorrent

% Раздел Тема Автор DL S | L
Comedy Club - Комеди Клаб new [ 17.48 GB ] Новый Comedy Club / Сезон: 15 / Серии: 1-30 из 35 + Новогодний [2019 ТВ-шоу юмор SATRip] bober100 Скачать
4 | 9
Comedy Club - Комеди Клаб new [ 31.05 GB ] Новый Comedy Club / Сезон: 15 / Серии: 1-30 из 35 [2019 ТВ-шоу юмор WEBRip 720p] bober100 Скачать
1 | 4

28-11-2019 20:33  

Отключить всю рекламу на сайте

    Дорогой пользователь! Огромная просьба, поблагодарите релизера, оцените раздачу и оставьте свои комментарий, если Вы скачали Новый Comedy Club через торрент бесплатно! Внесите свою лепту в развитие PiratBit!
    Комментировать посты могут только пользователи прошедшие не сложную регистрацию
    Показать сообщения:    

    Новый Comedy Club через торрент
    Скачать бесплатно Новый Comedy Club
    Новый Comedy Club скачать торрент
    Новый Comedy Club смотреть онлайн
    Cкачать фильм Новый Comedy Club бесплатно
    Новый Comedy Club скачать торрент в хорошем качестве
    Новый Comedy Club смотреть онлайн бесплатно в хорошем качестве


    Вы не можете начинать темы
    Вы не можете отвечать на сообщения
    Вы не можете редактировать свои сообщения
    Вы не можете удалять свои сообщения
    Вы не можете голосовать в опросах
    Вы не можете прикреплять файлы к сообщениям
    Вы можете скачивать файлы